Ссылка на приватное зеркало всего за 1$. Внимание количество ограничено!!!

iTunes

1+1

iTunes

мы

WEB-DL

1

iTunes

Чернобыль

iTunes

Ральф против интернета

Лицензия

ПШазам

Лицензия

Оно 2

Лицензия

30
pack

Вам бонус

ВАЖНО

!!Акция!!

Alien_RageХит недели

RePack

Resident Evil 21

ИГРА 18+

pack

RePack

jed

!!Акция!!

Alien_Rage

RePack

fifa19

RePack

Assassins Creed: Odyssey

RePack

NEED FOR SPEED™ PAYBACK

3 сезон

9 сезон

Бесстыжие 9 сезон

Все сериалы

все сериалы на PB.wtf

RePack

FAR CRY 5
Ребята, катастрофически не хватает 1900р. для оплаты серверов за Октябрь (всвязи с блокировками трафик упал в 3 раза), 1-2р., выручайте.
  

100 градусов ниже нуля / 100 Degrees Below Zero (Р.Д. Браунштейн / R.D. Braunstein) [ 2013 , фантастика, боевик , WEB-DLRip ] VO [VANO] pb.wtf

100 градусов ниже нуля через торрент pb.wtf

Размер: 1.37 GB | Добавлен: 6 лет 7 мес. назад | Торрент скачан:1913 раз
Скачать  

09-05-2013 10:09 100 градусов ниже нуля Скачать торрент  

100 градусов ниже нуля / 100 Degrees Below Zero




  • Год выпуска: 2013
  • Страна: США
  • Жанр: фантастика, боевик

  • Продолжительность: 01:28:21
  • Перевод: Любительский (одноголосый)[VANO]
  • Субтитры: нет

  • Режиссер: Р.Д. Браунштейн / R.D. Braunstein
  • Сценарий: Х. Перри Хортон / H. Perry Horton, Ричард Шенкман / Richard Schenkman
  • Продюсер: Дэвид Майкл Лэтт / David Michael Latt, Пол Бейлс / Paul Bales, Livia Bús, Максимилиан Эльфелдт / Maximilian Elfeldt, Adam Nemenyi
  • В ролях: Марк МакКевитт Эвинс (Ryan), Джефф Фэйи (Steve), Юдит Фекете (Lacey), Андрэй Джонсон (Jackson), Lajos Kalmár II (Other Tough), Иван Камарас (Prof. Goldschein), Андраш Корчмарос (Philippe), Сара Малакул Лэйн (Taryn), Тамаш Лендьель (Claude), Джон Рис-Дэвис (Ralph Dillard), Джордан Джеймс Смит (Dr. Oppemheim), Зофи Трекско (Angelique)
  • Бюджет: $500 000
  • Мировая премьера: 13 апреля 2013
  • Описание:
    На Земле начинается глобальное похолодание. Человечество на грани гибели. Группа учёных пытается предотвратить новый ледниковый период...

  • Рейтинг
    imdb.com: 3.20 (68)

  • Качество: WEB-DLRip
  • Формат: AVI
  • Видео кодек: XviD
  • Аудио кодек:AC3
  • Видео: XviD; 720x400 (16:9); 1829 Kbps; 23,976 fps; 0,265 bpp
  • Аудио: AC3; 384 Kbps; CBR; 6 ch; 16 bit,48 kHz


  • General
    Complete name : D:Торенты100.Degrees.Below.Zero.2013.L1.WEBDLRip.1400MB.avi
    Format : AVI
    Format/Info : Audio Video Interleave
    File size : 1.37 GiB
    Duration : 1h 28mn
    Overall bit rate : 2 222 Kbps
    Writing application : VirtualDubMod 1.5.10.2 (build 2540/release)
    Writing library : VirtualDubMod build 2540/release

    Video
    ID : 0
    Format : MPEG-4 Visual
    Format profile : Advanced Simple@L5
    Format settings, BVOP : 2
    Format settings, QPel : No
    Format settings, GMC : No warppoints
    Format settings, Matrix : Default (MPEG)
    Codec ID : XVID
    Codec ID/Hint : XviD
    Duration : 1h 28mn
    Bit rate : 1 829 Kbps
    Width : 720 pixels
    Height : 400 pixels
    Display aspect ratio : 16:9
    Frame rate : 23.976 fps
    Color space : YUV
    Chroma subsampling : 4:2:0
    Bit depth : 8 bits
    Scan type : Progressive
    Compression mode : Lossy
    Bits/(Pixel*Frame) : 0.265
    Stream size : 1.13 GiB (82%)
    Writing library : XviD 65

    Audio
    ID : 1
    Format : AC-3
    Format/Info : Audio Coding 3
    Mode extension : CM (complete main)
    Codec ID : 2000
    Duration : 1h 28mn
    Bit rate mode : Constant
    Bit rate : 384 Kbps
    Channel(s) : 6 channels
    Channel positions : Front: L C R, Side: L R, LFE
    Sampling rate : 48.0 KHz
    Bit depth : 16 bits
    Compression mode : Lossy
    Stream size : 243 MiB (17%)
    Alignment : Split accross interleaves
    Interleave, duration : 42 ms (1.00 video frame)
    Interleave, preload duration : 500 ms

    © Оформление by Vetalpb.wtf



  • Скачать 100 градусов ниже нуля через торрент http://i47.fastpic.ru/big/2013/0505/55/ff0fbc48f98fa52c0fc275351a996d55.png Скачать фильм 100 градусов ниже нуля через торрент бесплантно в хорошем качестве Описание: На Земле начинается глобальное похолодание. Человечество на грани гибели. Группа учёных пытается предотвратить новый ледниковый ... 8.8 10 57
    Info! Золотая раздача, скачанное не засчитывается.
    Торрент: Зарегистрирован [2013-05-09 10:09] · скачан: 1 913 раз
    Статус: √ проверено
    Размер: 1.37 GB
    Как cкачать? Как скачать 100 градусов ниже нуля через торрент | qTorrent

    % Раздел Тема Автор DL S | L
    Фильмы 2013 (Звук TS, Cam, VO, DVO) [ 747 MB ] 100 градусов ниже нуля / 100 Degrees Below Zero [ 2013 HDRip ] VO [VANO] Ворон Скачать
    1 | 0

    28-11-2019 20:33  

    Отключить всю рекламу на сайте

    09-05-2013 10:29 100 градусов ниже нуля Скачать торрент  

    асалум прям какой то)pb.wtf



    09-05-2013 11:09 100 градусов ниже нуля Скачать торрент  

    Типичный тв3 шный фильм! pb.wtf



    09-05-2013 11:11 100 градусов ниже нуля Скачать торрент  

    Kesady писал(а):

    асалум прям какой то)

    он самыйpb.wtf



    09-05-2013 11:43 100 градусов ниже нуля Скачать торрент  

    Надежный источник писал(а):

    Выпущено: США / Asylum, The, Global Asylum, The, Institution,

    Когда ж Они обанкротятся?pb.wtf



    09-05-2013 18:50 100 градусов ниже нуля Скачать торрент  

    Asylum - и этим всё сказано!!!!!! в топку :rtfm:pb.wtf



    09-05-2013 19:53 100 градусов ниже нуля Скачать торрент  

    Кому-то нравятся данные высеры кинематографа , раз еще снимают ))pb.wtf



    10-05-2013 13:38 100 градусов ниже нуля Скачать торрент  

    Фильм воще отстойpb.wtf



    20-05-2013 02:03 100 градусов ниже нуля Скачать торрент  

    говно редкостноеpb.wtf



    23-05-2013 14:27 100 градусов ниже нуля Скачать торрент  

    спасибо за предупреждение качать не будуpb.wtf



    30-05-2013 06:36 100 градусов ниже нуля Скачать торрент  

    https://static.piratbit.cc/smiles/bc.gif
    НЕСМОТРЕТЬ!!!pb.wtf



    02-06-2013 11:34 100 градусов ниже нуля Скачать торрент  

    Лучше пересмотреть такой классный фильм как "Послезавтра", чем это.pb.wtf



      Дорогой пользователь! Огромная просьба, поблагодарите релизера, оцените раздачу и оставьте свои комментарий, если Вы скачали 100 градусов ниже нуля через торрент бесплатно! Внесите свою лепту в развитие PiratBit!
      Комментировать посты могут только пользователи прошедшие не сложную регистрацию
      Показать сообщения:    

      100 градусов ниже нуля через торрент
      Скачать бесплатно 100 градусов ниже нуля
      100 градусов ниже нуля скачать торрент
      100 градусов ниже нуля смотреть онлайн
      Cкачать фильм 100 градусов ниже нуля бесплатно
      100 градусов ниже нуля скачать торрент в хорошем качестве
      100 градусов ниже нуля смотреть онлайн бесплатно в хорошем качестве


      Вы не можете начинать темы
      Вы не можете отвечать на сообщения
      Вы не можете редактировать свои сообщения
      Вы не можете удалять свои сообщения
      Вы не можете голосовать в опросах
      Вы не можете прикреплять файлы к сообщениям
      Вы можете скачивать файлы