Ссылка на приватное зеркало нашего сайта всего за 1$. Внимание количество ограничено!!!

2 сезон

iTunes

1 сезон

1

iTunes

iTunes

iTunes

1 сезон

RePack

30

ИГРА 18+

pack

ВАЖНО

!!Акция!!

Alien_RageХит недели

RePack

MK11
pack

Забери бонус

RePack

jed

!!Акция!!

Alien_Rage

RePack

fifa19

RePack

Assassins Creed: Odyssey

RePack

NEED FOR SPEED™ PAYBACK

4 сезон

9 сезон

Бесстыжие 9 сезон

Все сериалы

все сериалы на PB.wtf

RePack

FAR CRY 5
  

Наркомовский обоз ( 01-04 из 04) (Влад Фурман) [2011, Военный фильм, драма, HDTV 1080i] pb.wtf

Наркомовский обоз через торрент pb.wtf

Размер: 11.23 GB | Добавлен: 7 лет 5 мес. назад | Торрент скачан:197 раз
Скачать  

09-05-2013 10:18 Наркомовский обоз Скачать торрент  

Наркомовский обоз (мини-сериал)




  • Год выпуска: 2011
  • Страна: Россия
  • Жанр: драма, приключения, военный

  • Продолжительность: 00:42:56
  • Перевод: Не требуется
  • Субтитры: нет

  • Режиссер: Влад Фурман
  • Сценарий: Андрей Шишов
  • Продюсер: Анатолий Чижиков, Наталья Чижикова, Сергей Куликов
  • В ролях: Сергей Маховиков (Виктор Филиппов, старшина), Ольга Фадеева (Тамара Симович), Анна Арланова (Надежда), Ирина Рахманова (Прасковья Марченко), Ричард Бондарев, Анатолий Петров (Хомяков Анатолий, старший политрук), Дарья Баранова (Варвара Кержак), Алексей Дозморов (водитель Хлебородов), Агния Кузнецова, Кирилл Новицкий (молодой бандит), Юлия Полубинская (Сима), Сергей Савенков (Денис)
  • Мировая премьера: 10 мая 2011
  • Релиз на DVD: 16 августа 2011, «Lizard Cinema Trade»
  • Описание:
    1941 год. Только что вышло постановление Комитета Обороны о водочном довольствии для действующей армии.
    Старшина Филиппов получает задание: впервые доставить в стрелковую дивизию те самые знаменитые «100 наркомовских грамм». В помощники ему дают 4 девушки-красноармейца, местного старика-проводника Архипа и его внука-подростка Митю. Погрузив на телеги тару, обоз трогается в путь. За несколько часов этой, казалось бы, рутинной тыловой поездки всем им предстоит пройти настоящие военные испытания: не единожды вступить бой, стать свидетелями высокой доблести и подлой трусости, узнать любовь и ревность.
    Веселое кокетство девушек со своим старшиной заканчивается уже при первой серьезной бомбежке. Никто из обозников еще не знает, что впереди их ждут прорвавшиеся немецкие мотоциклисты.

  • Рейтинг
    kinopoisk.ru: 7.505 (582)

  • Качество: HDTV 1080i
  • Формат: MPEG-TS
  • Видео кодек: AVC
  • Аудио кодек:MP3
  • Видео: AVC; 1920x1080 (16:9); 7860 Kbps; 25 fps; 0,152 bpp
  • Аудио: русский; MPEG-1 Audio layer 2; 192 Kbps; CBR; 2 ch,48 kHz


  • General
    ID : 1 (0x1)
    Complete name : J:ВЫКЛАДКАHDTVСериалыНаркомовский обоз (2011, Военный фильм, драма, HDTV) (MYDIMKA)�1 серия.ts
    Format : MPEG-TS
    File size : 2.54 GiB
    Duration : 42mn 56s
    Overall bit rate mode : Variable
    Overall bit rate : 8 473 Kbps
    Video
    ID : 2931 (0xB73)
    Menu ID : 1 (0x1)
    Format : AVC
    Format/Info : Advanced Video Codec
    Format profile : High@L4.0
    Format settings, CABAC : Yes
    Format settings, ReFrames : 3 frames
    Format settings, GOP : M=3, N=30
    Codec ID : 27
    Duration : 42mn 56s
    Bit rate : 7 860 Kbps
    Width : 1 920 pixels
    Height : 1 080 pixels
    Display aspect ratio : 16:9
    Frame rate : 25.000 fps
    Color space : YUV
    Chroma subsampling : 4:2:0
    Bit depth : 8 bits
    Scan type : MBAFF
    Bits/(Pixel*Frame) : 0.152
    Stream size : 2.36 GiB (93%)
    Audio
    ID : 2932 (0xB74)
    Menu ID : 1 (0x1)
    Format : MPEG Audio
    Format version : Version 1
    Format profile : Layer 2
    Codec ID : 3
    Duration : 42mn 56s
    Bit rate mode : Constant
    Bit rate : 192 Kbps
    Channel(s) : 2 channels
    Sampling rate : 48.0 KHz
    Compression mode : Lossy
    Stream size : 59.0 MiB (2%)
    Language : Russian
    Text
    ID : 2934 (0xB76)-888
    Menu ID : 1 (0x1)
    Format : Teletext Subtitle
    Language : Russian
    Menu
    ID : 2930 (0xB72)
    Menu ID : 1 (0x1)
    Duration : 42mn 56s
    List : 2931 (0xB73) (AVC) / 2932 (0xB74) (MPEG Audio, Russian) / 2934 (0xB76) ()
    Language : / Russian

    © Оформление by Vetalpb.wtf



  • Скачать Наркомовский обоз через торрент http://i47.fastpic.ru/big/2013/0505/55/ff0fbc48f98fa52c0fc275351a996d55.png Скачать фильм Наркомовский обоз через торрент бесплантно в хорошем качестве Описание: 1941 год. Только что вышло постановление Комитета Обороны о водочном довольствии для действующей армии.Старшина Филиппов получает ... 9.2 10 13
    Info! Золотая раздача, скачанное не засчитывается.
    Торрент: Зарегистрирован [2013-05-09 10:18] · скачан: 197 раз
    Статус: √ проверено
    Размер: 11.23 GB
    Как cкачать? Как скачать Наркомовский обоз через торрент | qTorrent

    % Раздел Тема Автор DL S | L
    Наши сериалы [ 7.71 GB ] Наркомовский обоз / Серии: 1-4 из 4 [2011 военный HDTVRip 720p] bober100 Скачать
    1 | 0
    Наши сериалы [ 2.17 GB ] Наркомовский обоз [2011 военный DVDRip] vasilich619 Скачать
    1 | 0
    Наши сериалы [ 2.17 GB ] Наркомовский обоз / Сезон: 1 Серии: 4 из 4 [2011 военный SATRip] -=Cherry=- Скачать
    1 | 0

    28-11-2019 20:33  

    Отключить всю рекламу на сайте

      Дорогой пользователь! Огромная просьба, поблагодарите релизера, оцените раздачу и оставьте свои комментарий, если Вы скачали Наркомовский обоз через торрент бесплатно! Внесите свою лепту в развитие PiratBit!
      Комментировать посты могут только пользователи прошедшие не сложную регистрацию
      Показать сообщения:    

      Наркомовский обоз через торрент
      Скачать бесплатно Наркомовский обоз
      Наркомовский обоз скачать торрент
      Наркомовский обоз смотреть онлайн
      Cкачать фильм Наркомовский обоз бесплатно
      Наркомовский обоз скачать торрент в хорошем качестве
      Наркомовский обоз смотреть онлайн бесплатно в хорошем качестве


      Вы не можете начинать темы
      Вы не можете отвечать на сообщения
      Вы не можете редактировать свои сообщения
      Вы не можете удалять свои сообщения
      Вы не можете голосовать в опросах
      Вы не можете прикреплять файлы к сообщениям
      Вы можете скачивать файлы