Ссылка на приватное зеркало нашего сайта всего за 1$. Внимание количество ограничено!!!

2 сезон

iTunes

1 сезон

1

2 сезон

2 сезон

iTunes

1 сезон

RePack

30

Ultimate

ВАЖНО

ИГРА 18+

pack

RePack

MK11
pack

Забери бонус

RePack

jed

!!Акция!!

Alien_Rage

RePack

fifa19

RePack

Assassins Creed: Odyssey

RePack

NEED FOR SPEED™ PAYBACK

4 сезон

9 сезон

Бесстыжие 9 сезон

Все сериалы

все сериалы на PB.wtf

RePack

FAR CRY 5
  

Захватчик / Invasor (Даниэль Кальпарсоро) [2012 г., триллер, BDRip 720p, VO (den904)] pb.wtf

Захватчик через торрент pb.wtf

Размер: 4.17 GB | Добавлен: 7 лет 6 мес. назад | Торрент скачан:36 раз
Скачать  

11-05-2013 06:34 Захватчик Скачать торрент  

Захватчик / Invasor


Год выпуска: 2012
Страна: Испания
Жанр: триллер,
Продолжительность: 01:39:01
Перевод: Любительский одноголосый [den904]

Режиссер: Даниэль Кальпарсоро

В ролях: Алекс Хафнер, Антонио де ла Торре, Альберто Эмманн, Инма Куэста, Карра Элехальде, София Ория, Луис Захэра, Бернабе Фернандес, Бенжамин Натан-Серио, Изабель Бланко,

Описание: Молодой врач Пабло отправляется в Ирак с гуманитарной миссией. Каждый день он выносит из-под обстрела раненых солдат, мирных граждан, женщин, детей, американцев, иракцев. Однажды попав в засаду иракских повстанцев, Пабло чудом остается жив, но в его памяти сохранились лишь отдельные картинки всего, что случилось после того злосчастного взрыва. Теперь Пабло предстоит выяснить правду и понять кто он - национальный герой, чье имя у всех на устах, или соучастник жуткого по своей жестокости преступления.

Качество: BDRip 720p
Формат: MKV
Видео кодек: H264
Аудио кодек: AC3+DTS
Видео: MPEG4 Video (H264) 4810 Kb/s 1280x544 24.00fps
Аудио1: Russian: Dolby AC3, 448 Kb/s (6 ch)
Аудио2: Spanish: DTS, 768 Kb/s (6 ch)

Скриншоты:

скриншот   скриншот   скриншот   скриншот  

Format : Matroska
Format version : Version 2
File size : 4.17 GiB
Duration : 1h 39mn
Overall bit rate : 6 024 Kbps
Encoded date : UTC 2013-05-10 08:16:02
Writing application : mkvmerge v5.2.0 ('I can't explain') built on Dec 18 2011 18:12:03
Writing library : libebml v1.2.3 + libmatroska v1.3.0

Video
ID : 1
Format : AVC
Format/Info : Advanced Video Codec
Format profile : High@L4.1
Format settings, CABAC : Yes
Format settings, ReFrames : 11 frames
Codec ID : V_MPEG4/ISO/AVC
Duration : 1h 39mn
Bit rate : 4 810 Kbps
Width : 1 280 pixels
Height : 544 pixels
Display aspect ratio : 2.35:1
Frame rate mode : Constant
Frame rate : 24.000 fps
Color space : YUV
Chroma subsampling : 4:2:0
Bit depth : 8 bits
Scan type : Progressive
Bits/(Pixel*Frame) : 0.288
Stream size : 3.24 GiB (78%)
Title : Invasor.2012.720p.BluRay.DTS.x264-HDWinG
Writing library : x264 core 130 r2274+704+40 24c804d tMod+MixAQ [8-bit@4:2:0 X86_64]
Encoding settings : cabac=1 / ref=11 / deblock=1:-3:-3 / analyse=0x3:0x113 / me=umh / subme=11 / psy=1 / fade_compensate=0.00 / psy_rd=1.05:0.00 / mixed_ref=1 / me_range=48 / chroma_me=1 / trellis=2 / 8x8dct=1 / cqm=0 / deadzone=21,11 / fast_pskip=0 / chroma_qp_offset=-2 / threads=12 / lookahead_threads=2 / sliced_threads=0 / nr=0 / decimate=0 / interlaced=0 / bluray_compat=0 / constrained_intra=0 / fgo=0 / bframes=8 / b_pyramid=2 / b_adapt=2 / b_bias=0 / direct=3 / weightb=1 / open_gop=0 / weightp=2 / keyint=240 / keyint_min=24 / scenecut=40 / intra_refresh=0 / rc=2pass / mbtree=0 / bitrate=4810 / ratetol=1.0 / qcomp=0.72 / qpmin=0 / qpmax=69 / qpstep=4 / cplxblur=20.0 / qblur=0.5 / ip_ratio=1.25 / pb_ratio=1.20 / aq=4:0.90 / aq-sensitivity=10.00 / aq-ifactor=1.00 / aq-pfactor=1.00 / aq-bfactor=1.00 / aq2=0
Language : English
Default : Yes
Forced : Yes

Audio #1
ID : 2
Format : AC-3
Format/Info : Audio Coding 3
Mode extension : CM (complete main)
Format settings, Endianness : Big
Codec ID : A_AC3
Duration : 1h 39mn
Bit rate mode : Constant
Bit rate : Kbps
Channel(s) : 6 channels
Channel positions : Front: L C R, Side: L R, LFE
Sampling rate : 48.0 KHz
Bit depth : 16 bits
Compression mode : Lossy
Stream size : 317 MiB (7%)
Title : DD 5.1 @ 448 kbps - L1, den904
Language : Russian
Default : Yes
Forced : Yes

Audio #2
ID : 3
Format : DTS
Format/Info : Digital Theater Systems
Mode : 16
Format settings, Endianness : Big
Codec ID : A_DTS
Duration : 1h 39mn
Bit rate mode : Constant
Bit rate : 768 Kbps
Channel(s) : 6 channels
Channel positions : Front: L C R, Side: L R, LFE
Sampling rate : 48.0 KHz
Bit depth : 16 bits
Compression mode : Lossy
Stream size : 544 MiB (13%)
Title : DTS 5.1 @ 768 kbps
Language : Spanish
Default : No
Forced : No

pb.wtf



Скачать Захватчик через торрент http://i48.fastpic.ru/big/2013/0511/14/7f4077de2268b08b73bb299b6d841114.png Скачать фильм Захватчик через торрент бесплантно в хорошем качестве Описание: Молодой врач Пабло отправляется в Ирак с гуманитарной миссией. Каждый день он выносит из-под обстрела раненых солдат, мирных ... 9.6 10 7
Info! Золотая раздача, скачанное не засчитывается.
Торрент: Зарегистрирован [2013-05-11 06:59] · скачан: 36 раз
Статус: √ проверено
Размер: 4.17 GB
Как cкачать? Как скачать Захватчик через торрент | qTorrent

% Раздел Тема Автор DL S | L
Фильмы 2012 [ 1.46 GB ] Захватчик / Invasor [2012 HDRip VO] coc900 Скачать
1 | 0


Последний раз редактировалось: Lyfe (2013-05-11 06:58), всего редактировалось 2 раз(а)

28-11-2019 20:33  

Отключить всю рекламу на сайте

11-05-2013 06:43 Захватчик Скачать торрент  

Lyfe писал(а):

Видео кодек: MPEG4
Аудио кодек: AC3

Видео кодек: H264
Аудио кодек: AC3 + DTSpb.wtf



11-05-2013 06:47 Захватчик Скачать торрент  

dexter lex поправил, хоть и мелочь)pb.wtf



11-05-2013 08:45 Захватчик Скачать торрент  

Иракские повстанцы...В своей стране....Смешноpb.wtf



    Дорогой пользователь! Огромная просьба, поблагодарите релизера, оцените раздачу и оставьте свои комментарий, если Вы скачали Захватчик через торрент бесплатно! Внесите свою лепту в развитие PiratBit!
    Комментировать посты могут только пользователи прошедшие не сложную регистрацию
    Показать сообщения:    

    Захватчик через торрент
    Скачать бесплатно Захватчик
    Захватчик скачать торрент
    Захватчик смотреть онлайн
    Cкачать фильм Захватчик бесплатно
    Захватчик скачать торрент в хорошем качестве
    Захватчик смотреть онлайн бесплатно в хорошем качестве


    Вы не можете начинать темы
    Вы не можете отвечать на сообщения
    Вы не можете редактировать свои сообщения
    Вы не можете удалять свои сообщения
    Вы не можете голосовать в опросах
    Вы не можете прикреплять файлы к сообщениям
    Вы можете скачивать файлы