MEGA SALE -50% FORZA HORIZON 4 ULTIMATE+ВСЕ DLC+ОНЛАЙН всего за 599р. 299 руб. (супер цена). Внимание количество ограничено!!!

iTunes

1+1

iTunes

мы

iTunes

1

iTunes

Чернобыль

iTunes

Ральф против интернета

Лицензия

ПШазам

Лицензия

Игра престолов

Лицензия

30
pack

ВАЖНО

!!Акция!!

Alien_RageХит недели

RePack

Resident Evil 21

ИГРА 18+

pack

RePack

Metro:Exodus

!!Акция!!

Alien_Rage

RePack

fifa19

RePack

Assassins Creed: Odyssey

RePack

NEED FOR SPEED™ PAYBACK

3 сезон

9 сезон

Бесстыжие 9 сезон

Все сериалы

все сериалы на PB.wtf

RePack

FAR CRY 5
Ребята, катастрофически не хватает 7730р. для оплаты серверов за ИЮЛЬ (всвязи с блокировками трафик упал в 3 раза), 1-2р., выручайте.
  

Комиссар полиции и Малыш / Duelul (Серджиу Николаеску) [1981 г., Детектив, боевик, SATRip, Профессиональный (дублированный) ] pb.wtf

Комиссар полиции и Малыш через торрент pb.wtf

Размер: 1.19 GB | Добавлен: 6 лет 3 мес. назад | Торрент скачан:15 раз
Скачать  

11-05-2013 10:54 Комиссар полиции и Малыш Скачать торрент  

Комиссар полиции и Малыш / Duelul
Год выпуска: 1981
Страна: Румыния
Жанр: Детектив, боевик,
Продолжительность: 01:23:11
Перевод: Профессиональный (дублированный)

Режиссер: Серджиу Николаеску
Сценарий: Мирча Бурада, Винтилэ Корбул, Серджиу Николаеску

Мировой рейтинг IMDB 7.00 (281)



В ролях: Серджиу Николаеску, Жан Константин, Коля Рэуту, Ион Ритиу, Овидий Юлий Молдован, Джордж Михаица, Тома Дорел, Ана Мария Мокулеску, Мэриэн Стоика, Adrian Ciovei,

Роли дублируют: Феликс Яворский, Алексей Золотницкий, Бронислава Захарова, Герман Качин, Константин Тыртов,

Описание: Идёт сентябрь 1939 года. Фашистская Германия уже вторглась в Польшу. Молодой комиссар полиции Бухареста Тудор Молдован расследует ограбление банка, в котором погибли двое охранников.
В самой Румынии, пришедший к власти профашистский режим маршала Антонеску всячески поддерживает «молодое поколение» — боевиков из организации «Железная гвардия», так называемых «легионеров». Румынские деловые круги, предчувствуя скорый приход к власти в стране легионеров, понимая что тех уже нельзя остановить, решают их поддержать: и деньгами и оружием. Вложив крупную сумму денег в банк, они сами же и организуют его ограбление. Но им ещё неизвестно, что дело об ограблении попадёт в руки молодого и принципиального комиссара Молдавана: честного, но аполитичного полицейского, в борьбе с преступностью полагающегося, главным образом, на свой «Вальтер» и стрелковые навыки. Параллельно с расследованием, комиссар берёт шефство над оравой румынских беспризорников.


Доп. информация: Прокатная копия

Фильм дублирован на киностудии "Мосфильм"

Режиссёр дубляжа: Е.Ильинов
Звукооператор: А.Бычкова
Автор литературного перевода: Б.Кордунов
Редактор: Р.Лукина


Качество: SATRip
Формат: AVI
Видео кодек: XviD
Аудио кодек: MP3
Видео: 720 x 400 (16:9), 25 fps, XviD, 1853 kbps, 0.257 bit/pixel
Аудио: 48 kHz, MPEG Layer 3, 2 ch, ~192.00 kbps avg



скриншот   скриншот   скриншот   скриншот   скриншот   скриншот  
Общее
Полное имя : E:Komissar.polizii.i.malisch.(1981).avi
Формат : AVI
Формат/Информация : Audio Video Interleave
Размер файла : 1,19 Гбайт
Продолжительность : 1 ч. 23 м.
Общий поток : 2055 Кбит/сек
Программа кодирования : VirtualDubModRus 1.5.10.2 (build 2542/release)
Библиотека кодирования : VirtualDubMod build 2542/release

Видео
Идентификатор : 0
Формат : MPEG-4 Visual
Профиль формата : Advanced Simple@L5
Параметр BVOP формата : 2
Параметр QPel формата : Нет
Параметр GMC формата : Без точки перехода
Параметр матрицы формата : Default (H.263)
Режим смешивания : Сжатый битовый поток
Идентификатор кодека : XVID
Идентификатор кодека/Подсказка : XviD
Продолжительность : 1 ч. 23 м.
Битрейт : 1853 Кбит/сек
Ширина : 720 пикс.
Высота : 400 пикс.
Соотношение сторон : 16:9
Частота кадров : 25,000 кадр/сек
Цветовое пространство : YUV
Подвыборка цветности : 4:2:0
Битовая глубина : 8 бит
Тип развёртки : Прогрессивная
Метод сжатия : С потерями
Бит/(Пиксели*Кадры) : 0.257
Размер потока : 1,08 Гбайт (90%)
Библиотека кодирования : XviD 61

Аудио
Идентификатор : 1
Формат : MPEG Audio
Версия формата : Version 1
Профиль формата : Layer 3
Идентификатор кодека : 55
Идентификатор кодека/Подсказка : MP3
Продолжительность : 1 ч. 23 м.
Вид битрейта : Постоянный
Битрейт : 192 Кбит/сек
Канал(ы) : 2 канала(ов)
Частота : 48,0 КГц
Метод сжатия : С потерями
Размер потока : 114 Мбайт (9%)
Выравнивание : Соединение по промежуткам
Продолжительность промежутка : 40 мс. (1,00 видеокадр)
Время предзагрузки промежутка : 504 ms
Библиотека кодирования : LAME3.98r
Настройки программы : -m s -V 4 -q 2 -lowpass 18.6 -b 192


Комиссар полиции и Малыш скачать торрент


pb.wtf



Скачать Комиссар полиции и Малыш через торрент http://i47.fastpic.ru/big/2013/0511/84/fa5a0987bfd6bc9ba756d3dee796bf84.jpg Скачать фильм Комиссар полиции и Малыш через торрент бесплантно в хорошем качестве Описание: Идёт сентябрь 1939 года. Фашистская Германия уже вторглась в Польшу. Молодой комиссар полиции Бухареста Тудор Молдован расследует ... 9.8 10 5
Info! Золотая раздача, скачанное не засчитывается.
Торрент: Зарегистрирован [2013-05-11 10:54] · скачан: 15 раз
Статус: √ проверено
Размер: 1.19 GB
Как cкачать? Как скачать Комиссар полиции и Малыш через торрент | qTorrent


>> Регистрируемся здесь <<






Отзывы и комментарии о схеме читаем и пишем здесь: ---> Отзывы и комментарии о схеме

Новые благодарочки в телеграм довольных пользователей:
скриншот   скриншот   скриншот   скриншот   скриншот
    Дорогой пользователь! Огромная просьба, поблагодарите релизера, оцените раздачу и оставьте свои комментарий, если Вы скачали Комиссар полиции и Малыш через торрент бесплатно! Внесите свою лепту в развитие PiratBit!
    Комментировать посты могут только пользователи прошедшие не сложную регистрацию
    Показать сообщения:    

    Комиссар полиции и Малыш через торрент
    Скачать бесплатно Комиссар полиции и Малыш
    Комиссар полиции и Малыш скачать торрент
    Комиссар полиции и Малыш смотреть онлайн
    Cкачать фильм Комиссар полиции и Малыш бесплатно
    Комиссар полиции и Малыш скачать торрент в хорошем качестве
    Комиссар полиции и Малыш смотреть онлайн бесплатно в хорошем качестве


    Вы не можете начинать темы
    Вы не можете отвечать на сообщения
    Вы не можете редактировать свои сообщения
    Вы не можете удалять свои сообщения
    Вы не можете голосовать в опросах
    Вы не можете прикреплять файлы к сообщениям
    Вы можете скачивать файлы