MEGA NEWS Получи личный уникальный адрес сайта и защити себя от блокировок. Внимание количество ограничено!!!

iTunes

1+1

iTunes

мы

iTunes

1

iTunes

Чернобыль

iTunes

Ральф против интернета

Лицензия

ПШазам

Лицензия

Игра престолов

Лицензия

30
pack

ВАЖНО

!!Акция!!

Alien_RageХит недели

RePack

Resident Evil 21

ИГРА 18+

pack

RePack

Metro:Exodus

!!Акция!!

Alien_Rage

RePack

fifa19

RePack

Assassins Creed: Odyssey

RePack

NEED FOR SPEED™ PAYBACK

3 сезон

9 сезон

Бесстыжие 9 сезон

Все сериалы

все сериалы на PB.wtf

RePack

FAR CRY 5
Ребята, катастрофически не хватает 1900р. для оплаты серверов за АВГУСТ (всвязи с блокировками трафик упал в 3 раза), 1-2р., выручайте.
  

Капкан / Capcana (Маноле Маркус) [1973 г., боевик, драма, криминал, SATRip, Профессиональный (дублированный)] pb.wtf

Капкан через торрент pb.wtf

Размер: 1.21 GB | Добавлен: 6 лет 5 мес. назад | Торрент скачан:19 раз
Скачать  

11-05-2013 13:22 Капкан Скачать торрент  

Капкан / Capcana
Год выпуска: 1973
Страна: Румыния
Жанр: боевик, драма, криминал,
Продолжительность: 01:24:36
Перевод: Профессиональный (дублированный)

Режиссер: Маноле Маркус
Сценарий: Титус Попович

Мировой рейтинг IMDB 6.40 (19)



В ролях: Мирча Албулеску, Зефи Альсек, Мария Кира, Иларион Чобану, Октавиан Котеску, Мирча Дьякону, Аурел Джурумия, Мариана Михут, Адина Попеску, Николае Прайда,

Роли дублируют: Антонина Кончакова, Вадим Захарченко, Валерий Носик, Виктор Авдюшко, Виктор Филиппов,

Описание: Михай Роман, к этому моменту ставший майором румынской госбезопасности и набивший руку в методах сыска, отправлен в горы Крачунешти чтобы помочь местным комсомольцам и коммунистам в борьбе с румынско-фашистскими недобитками, которые прочно закрепились в горной Румынии, и остервенело сопротивляются коммунистической власти, убивая коммунистов и насилуя комсомолок.
Локальные власти запуганы фашистами, в местной полиции явно есть их информаторы. Местное население боится даже выходить из дома после наступления темноты. Главарь местных фашиствующих элементов, старый противник Романа ещё по фильмам «Заговор» и «Трудный путь на Типперари» — Горья Баничу, готовит массированное вооружённое выступление против коммунистов. Майор Роман вместе с молодым сотрудником госбезопасности Негоице, у которого Роман в своё время был руководителем практики после выпуска Негоице из училища, и инструктором румынского союза молодёжи Сильвией Мунтяну наводит порядок в горном краю. Трилогия, начатая фильмом «Заговор» завершена. Серия приключений Комиссара Романа из пяти фильмов также заканчивается этим фильмом. Фашисты сдаются властям, сопротивлявшиеся уже перебиты, их главарь схвачен. Изрешечённый пулями и истекающий кровью Роман лежит на руках своих молодых помощников, и как ни в чём не бывало просит подкурить ему сигарету.


Доп. информация: Советский дубляж. (Прокатная копия)

Фильм дублирован на киностудии "Мосфильм"

Режиссер дубляжа: И.Васильчиков
Автор русского синхронного текста и режиссер дубляжа: Б.Кордунов
Звукооператор: Ю.Буглакова
Редактор: Л.Балашова


Качество: SATRip
Формат: AVI
Видео кодек: XviD
Аудио кодек: MP3
Видео: 720 x 400 (16:9), 25 fps, XviD, 1853 kbps, 0.257 bit/pixel
Аудио: 48 kHz, MPEG Layer 3, 2 ch, ~192.00 kbps avg



скриншот   скриншот   скриншот   скриншот   скриншот   скриншот  
Общее
Полное имя : E:Kapkan.avi
Формат : AVI
Формат/Информация : Audio Video Interleave
Размер файла : 1,21 Гбайт
Продолжительность : 1 ч. 24 м.
Общий поток : 2055 Кбит/сек
Программа кодирования : VirtualDubModRus 1.5.10.2 (build 2542/release)
Библиотека кодирования : VirtualDubMod build 2542/release

Видео
Идентификатор : 0
Формат : MPEG-4 Visual
Профиль формата : Advanced Simple@L5
Параметр BVOP формата : 2
Параметр QPel формата : Нет
Параметр GMC формата : Без точки перехода
Параметр матрицы формата : Default (H.263)
Режим смешивания : Сжатый битовый поток
Идентификатор кодека : XVID
Идентификатор кодека/Подсказка : XviD
Продолжительность : 1 ч. 24 м.
Битрейт : 1853 Кбит/сек
Ширина : 720 пикс.
Высота : 400 пикс.
Соотношение сторон : 16:9
Частота кадров : 25,000 кадр/сек
Цветовое пространство : YUV
Подвыборка цветности : 4:2:0
Битовая глубина : 8 бит
Тип развёртки : Прогрессивная
Метод сжатия : С потерями
Бит/(Пиксели*Кадры) : 0.257
Размер потока : 1,09 Гбайт (90%)
Библиотека кодирования : XviD 61

Аудио
Идентификатор : 1
Формат : MPEG Audio
Версия формата : Version 1
Профиль формата : Layer 3
Режим : Joint stereo
Расширение режима : MS Stereo
Идентификатор кодека : 55
Идентификатор кодека/Подсказка : MP3
Продолжительность : 1 ч. 24 м.
Вид битрейта : Постоянный
Битрейт : 192 Кбит/сек
Канал(ы) : 2 канала(ов)
Частота : 48,0 КГц
Метод сжатия : С потерями
Размер потока : 116 Мбайт (9%)
Выравнивание : Соединение по промежуткам
Продолжительность промежутка : 40 мс. (1,00 видеокадр)
Время предзагрузки промежутка : 504 ms


Капкан скачать торрент


pb.wtf



Скачать Капкан через торрент http://i48.fastpic.ru/big/2013/0511/95/7e2e68be93b2e67a0027c041bb8dbe95.jpg Скачать фильм Капкан через торрент бесплантно в хорошем качестве Описание: Михай Роман, к этому моменту ставший майором румынской госбезопасности и набивший руку в методах сыска, отправлен в горы ... 10 10 8
Info! Золотая раздача, скачанное не засчитывается.
Торрент: Зарегистрирован [2013-05-11 13:22] · скачан: 19 раз
Статус: √ проверено
Размер: 1.21 GB
Как cкачать? Как скачать Капкан через торрент | qTorrent


>> Регистрируемся здесь <<






Отзывы и комментарии о схеме читаем и пишем здесь: ---> Отзывы и комментарии о схеме

Новые благодарочки в телеграм довольных пользователей:
скриншот   скриншот   скриншот   скриншот   скриншот
    Дорогой пользователь! Огромная просьба, поблагодарите релизера, оцените раздачу и оставьте свои комментарий, если Вы скачали Капкан через торрент бесплатно! Внесите свою лепту в развитие PiratBit!
    Комментировать посты могут только пользователи прошедшие не сложную регистрацию
    Показать сообщения:    

    Капкан через торрент
    Скачать бесплатно Капкан
    Капкан скачать торрент
    Капкан смотреть онлайн
    Cкачать фильм Капкан бесплатно
    Капкан скачать торрент в хорошем качестве
    Капкан смотреть онлайн бесплатно в хорошем качестве


    Вы не можете начинать темы
    Вы не можете отвечать на сообщения
    Вы не можете редактировать свои сообщения
    Вы не можете удалять свои сообщения
    Вы не можете голосовать в опросах
    Вы не можете прикреплять файлы к сообщениям
    Вы можете скачивать файлы