2 сезон

iTunes

MVO

1

2 сезон

iTunes

iTunes

1 сезон

RePack

30

Новинка

ВАЖНО

ИГРА 18+

pack

RePack

MK11
pack

Легкие деньги

RePack

jed

RePack

fifa19

RePack

RDR2

RePack

NEED FOR SPEED™ PAYBACK

4 сезон

9 сезон

Бесстыжие 9 сезон

Все сериалы

все сериалы на PB.wtf

RePack

FAR CRY 5

Anonymous, добрый вечер, мы не успеваем собрать деньги на оплату серверов за декабрь и январь, помогите нам пожалуйста в это трудное время. В качестве благодарности мы отключим Вам всю рекламу на сайте (укажите свой ник в строку Ваше имя)!

×
  
Magnet ссылка

Лучшие клипы / Armin Van Buuren - The Best Music Video [ г., Trance, BDRip, Оригинал] pb.wtf

Лучшие клипы через торрент pb.wtf

Размер: 1.6 GB | Добавлен: 7 лет 8 мес. назад | Торрент скачан:440 раз
Скачать  

12-05-2013 18:15 Лучшие клипы Скачать торрент  

Лучшие клипы / Armin Van Buuren - The Best Music Video
Страна: All World
Жанр: Trance,
Продолжительность: 3:16:00
Перевод: Оригинал

Описание: Подборка лучших клипов Armin Van Buuren с 2003-2012 год.
1 Armin van Buuren Only Mirage 2011
2 Armin van Buuren - Orbion (Official Music Video)
3 Interia - The Chamber (Armin Only 2005)
4 Armin van Buuren presents Gaia - Status Excessu D (ASOT 500 Theme) [Official Music Video]
5 Armin van Buuren - Orbion (Fan Video)
6 Armin van Buuren feat. Laura V - Drowning
7 Armin van Buuren - Full Focus (Official Music Video)
8 Gaia – Tuvan Armin van Buuren
9 Armin van Buuren - Imagine (Eller van Buuren Live) (Armin Only Imagine 2008)
10 Armin Van Buuren - Love You More
11 Armin Van Buuren - This World Is Watching Me
12 Armin Van Buuren - Shivers
13 Armin Van Buuren - Serenity
14 Armin Van Buuren - Sail
15 Armin van Buuren Feat Jennifer Rene - Fine Without You (Official Music Video)
16 Ferry Corsten vs Armin van Buuren - Brute (Official Video)
17 Armin Van Buuren Feat. Ray Wilson - Yet Another Day (Official Music Video)
18 Armin van Buuren ft Sharon den Adel - In and Out of Love (Official Music Video)
19 Armin van Buuren - Sound Of Goodbye (Official Music Video)
20 Трансмиссия Armin van Buuren - Post Video.

Качество: BDRip
Формат: mp4
Видео кодек: x264
Аудио кодек: AAC
Видео:x264, 1408Кбит/с,640х320, 25 fps
Аудио: AAC, 48 KHz, 2 ch, 127 Kbpsскриншот   скриншот   скриншот   скриншот   скриншот   скриншот   скриншот  
[Видеоданные]
Общее
Полное имя : F:ФИЛЬМЫ ТОРРЕНТАArmin Van BuurenArmin Van Buuren - Sail.mp4
Формат : MPEG-4
Профиль формата : Base Media
Идентификатор кодека : isom
Размер файла : 33,4 Мбайт
Продолжительность : 3 м. 2 с.
Режим общего битрейта : Переменный
Общий поток : 1539 Кбит/сек
Дата кодирования : UTC 2008-04-12 18:13:33
Дата пометки : UTC 2008-04-12 18:13:33

Видео
Идентификатор : 1
Формат : AVC
Формат/Информация : Advanced Video Codec
Профиль формата : Baseline@L3.0
Параметр CABAC формата : Нет
Параметр ReFrames формата : 6 кадров
Идентификатор кодека : avc1
Идентификатор кодека/Информация : Advanced Video Coding
Продолжительность : 3 м. 1 с.
Битрейт : 1408 Кбит/сек
Максимальный битрейт : 4072 Кбит/сек
Ширина : 640 пикселей
Высота : 320 пикселей
Соотношение сторон : 2,000
Режим частоты кадров : Постоянный
Частота кадров : 25,000 кадров/сек
Цветовое пространство : YUV
Субдискретизация насыщенности : 4:2:0
Битовая глубина : 8 бит
Тип развёртки : Прогрессивная
Бит/(Пиксели*Кадры) : 0.275
Размер потока : 30,6 Мбайт (92%)
Библиотека кодирования : x264 core 59
Настройки программы : cabac=0 / ref=6 / deblock=1:0:0 / analyse=0x1:0x131 / me=umh / subme=6 / brdo=0 / mixed_ref=1 / me_range=16 / chroma_me=1 / trellis=0 / 8x8dct=0 / cqm=0 / deadzone=21,11 / chroma_qp_offset=0 / threads=2 / nr=0 / decimate=1 / mbaff=0 / bframes=0 / keyint=250 / keyint_min=25 / scenecut=40(pre) / rc=2pass / bitrate=1408 / ratetol=1.0 / rceq='blurCplx^(1-qComp)' / qcomp=1.00 / qpmin=10 / qpmax=51 / qpstep=4 / cplxblur=20.0 / qblur=0.5 / ip_ratio=1.40 / aq=2:1.00
Дата кодирования : UTC 2008-04-12 18:13:33
Дата пометки : UTC 2008-04-12 18:13:34

Аудио
Идентификатор : 2
Формат : AAC
Формат/Информация : Advanced Audio Codec
Профиль формата : LC
Идентификатор кодека : 40
Продолжительность : 3 м. 2 с.
Вид битрейта : Переменный
Битрейт : 127 Кбит/сек
Максимальный битрейт : 135 Кбит/сек
Каналы : 2 канала
Расположение каналов : Front: L R
Частота : 48,0 КГц
Метод сжатия : С потерями
Размер потока : 2,76 Мбайт (8%)
Дата кодирования : UTC 2008-04-12 18:13:34
Дата пометки : UTC 2008-04-12 18:13:34

)

pb.wtf



Скачать Лучшие клипы через торрент http://pic.kartinco.top/images/2/kkszeyhwy7.jpg Скачать фильм Лучшие клипы через торрент бесплантно в хорошем качестве Описание: Подборка лучших клипов Armin Van Buuren с 2003-2012 год.1 Armin van Buuren Only Mirage 20112 Armin van Buuren - Orbion ... 9.8 10 36
Info! Золотая раздача, скачанное не засчитывается.
Торрент: Зарегистрирован [2013-05-12 18:15] · скачан: 440 раз
Статус: √ проверено
Размер: 1.6 GB
Как cкачать? Как скачать Лучшие клипы через торрент | UTorrent



Последний раз редактировалось: kosarev_evgeny36 (2013-05-14 10:43), всего редактировалось 13 раз(а)

28-11-2019 20:33  

Отключить всю рекламу на сайте

12-05-2013 18:38 Лучшие клипы Скачать торрент  

Подборка лучших песен Armin Van Buuren с 2003-2013 год.мр3,320кв можеш сделать плиз!pb.wtf



12-05-2013 18:42 Лучшие клипы Скачать торрент  

ОК, если есть интерес, попробуем залить лучшие песни, но не обещаю что все будут 320 кб.pb.wtf



12-05-2013 18:48 Лучшие клипы Скачать торрент  

спасио буду ждатьpb.wtf



12-05-2013 19:08 Лучшие клипы Скачать торрент  

kosarev_evgeny36
Максимальный размер постера 700х700
Выложи полностью информацию по видео файлу.
pb.wtf



13-05-2013 02:53 Лучшие клипы Скачать торрент  

забираю,спасибо!pb.wtf



13-05-2013 08:52 Лучшие клипы Скачать торрент  

не нажимается кнопка скачать !!! pb.wtf



14-05-2013 11:45 Лучшие клипы Скачать торрент  

Огромное спасибо -=Cherry=- , раздача ожилаpb.wtf



21-05-2013 17:36 Лучшие клипы Скачать торрент  

Подборка лучших песен Armin Van Buuren с 2003-2013 год.мр3,320кв можеш сделать плиз! жду не дождусьpb.wtf



13-09-2013 08:55 Лучшие клипы Скачать торрент  

дайте скорости.а то вообще раздающих нет(((pb.wtf



    Дорогой пользователь! Огромная просьба, поблагодарите релизера, оцените раздачу и оставьте свои комментарий, если Вы скачали Лучшие клипы через торрент бесплатно! Внесите свою лепту в развитие PiratBit!
    Комментировать посты могут только пользователи прошедшие не сложную регистрацию
    Показать сообщения:    

    Лучшие клипы через торрент
    Скачать бесплатно Лучшие клипы
    Лучшие клипы скачать торрент
    Лучшие клипы смотреть онлайн
    Cкачать фильм Лучшие клипы бесплатно
    Лучшие клипы скачать торрент в хорошем качестве
    Лучшие клипы смотреть онлайн бесплатно в хорошем качестве


    Вы не можете начинать темы
    Вы не можете отвечать на сообщения
    Вы не можете редактировать свои сообщения
    Вы не можете удалять свои сообщения
    Вы не можете голосовать в опросах
    Вы не можете прикреплять файлы к сообщениям
    Вы можете скачивать файлы