1 сезон

1 сезон

iTunes

1

КиноПоиск HD

Кинопоиск HD

iTunes

13

1 сезон

RePack

30

Новинка

ВАЖНО

ИГРА 18+

pack

RePack

MK11
pack

Легкие деньги

RePack

jed

RePack

fifa19

RePack

RDR2

RePack

NEED FOR SPEED™ PAYBACK

4 сезон

9 сезон

Бесстыжие 9 сезон

Все сериалы

все сериалы на PB.wtf

RePack

FAR CRY 5
  
Magnet ссылка

Оптом дешевле 2 / Cheaper by the Dozen 2 (Адам Шэнкман / Adam Shankman) [2005 г., США, Комедия, HDRip] Dub pb.wtf

Оптом дешевле 2 через торрент pb.wtf

Размер: 1.46 GB | Добавлен: 7 лет 11 мес. назад | Торрент скачан:186 раз
Скачать  

13-05-2013 06:25 Оптом дешевле 2 Скачать торрент  

Оптом дешевле 2 / Cheaper by the Dozen 2
Год выпуска: 2005
Страна: США
Жанр: Комедия
Продолжительность: 01:33:54
Перевод: Профессиональный (полное дублирование)
Русские субтитры: нет

Режиссер: Адам Шэнкман / Adam Shankman

В ролях: Стив Мартин, Александер Конти, Блэйк Вудрафф, Бонни Хант, Джейкоб Смит, Джейми Кинг, Кармен Электра, Кевин Шмидт, Лилиана Мьюми, Морган Йорк, Пайпер Перабо, Том Уэллинг, Тэйлор Лотнер

Описание: Сиквел одноименной семейной комедии. Семейство Бейкеров, знакомое нам по первому фильму, планирует провести беззаботные летние каникулы на природе, однако на отдыхе они встречаются с другой, не менее крупной семейкой, детей в кадре, таким образом, становится в два раза больше! Между ними вспыхивает здоровое соперничество и конкуренция, сулящие им немало проблем.

Качество: HDRip
Формат: AVI
Видео кодек: XviD
Аудио кодек: AC3
Видео: 720x304 (2.37:1), 23.976 fps, XviD build 73 ~1828 kbps avg, 0.35 bit/pixel
Аудио: 48 kHz, AC3 Dolby Digital, 3/2 (L,C,R,l,r) + LFE ch, ~384.00 kbps avg

Раздача от:
D:Cheaper.by.the.Dozen.2.2005.HDRip [YTN] by dexter lex.avi
General
Complete name : D:Cheaper.by.the.Dozen.2.2005.HDRip [YTN] by dexter lex.avi
Format : AVI
Format/Info : Audio Video Interleave
File size : 1.46 GiB
Duration : 1h 33mn
Overall bit rate : 2 222 Kbps
Writing application : VirtualDubMod 1.5.10.3 | www.virtualdub-fr.org || (build 2550/release)
Writing library : VirtualDubMod build 2550/release
Video #0
ID : 0
Format : MPEG-4 Visual
Format profile : Advanced Simple@L5
Format settings, BVOP : 1
Format settings, QPel : No
Format settings, GMC : No warppoints
Format settings, Matrix : Custom
Codec ID : XVID
Codec ID/Hint : XviD
Duration : 1h 33mn
Bit rate : 1 828 Kbps
Width : 720 pixels
Height : 304 pixels
Display aspect ratio : 2.37:1
Frame rate : 23.976 fps
Color space : YUV
Chroma subsampling : 4:2:0
Bit depth : 8 bits
Scan type : Progressive
Compression mode : Lossy
Bits/(Pixel*Frame) : 0.348
Stream size : 1.20 GiB (82%)
Writing library : XviD 73
Audio #1
ID : 1
Format : AC-3
Format/Info : Audio Coding 3
Mode extension : CM (complete main)
Format settings, Endianness : Big
Codec ID : 2000
Duration : 1h 33mn
Bit rate mode : Constant
Bit rate : 384 Kbps
Channel(s) : 6 channels
Channel positions : Front: L C R, Side: L R, LFE
Sampling rate : 48.0 KHz
Bit depth : 16 bits
Compression mode : Lossy
Stream size : 258 MiB (17%)
Alignment : Split accross interleaves
Interleave, duration : 42 ms (1.00 video frame)
Interleave, preload duration : 500 ms
http://multi-up.com/865072
pb.wtf



Скачать Оптом дешевле 2 через торрент http://i45.fastpic.ru/big/2012/1030/80/f1c02594a270a2ac83f3b8c9607def80.jpg Скачать фильм Оптом дешевле 2 через торрент бесплантно в хорошем качестве Описание: Сиквел одноименной семейной комедии. Семейство Бейкеров, знакомое нам по первому фильму, планирует провести беззаботные летние ... 10 10 3
Info! Золотая раздача, скачанное не засчитывается.
Торрент: Зарегистрирован [2013-05-13 06:25] · скачан: 186 раз
Статус: √ проверено
Размер: 1.46 GB
Как cкачать? Как скачать Оптом дешевле 2 через торрент | UTorrent

% Раздел Тема Автор DL S | L
Фильмы [HD 720p, 1080p] (Хороший звук DUB, MVO) [ 8.06 GB ] Оптом дешевле 2 / Cheaper by the Dozen 2 [2005 BDRip 1080p ot msltel] DUB msltel Скачать
1 | 0
Фильмы 2001-2005 [ 2 GB ] Оптом дешевле 2 / Cheaper by the Dozen 2 [2005 BDRip AVC ot msltel] DUB msltel Скачать
1 | 0
Фильмы [HD 720p, 1080p] (Хороший звук DUB, MVO) [ 3.14 GB ] Оптом дешевле 2 / Cheaper by the Dozen 2 [2005 BDRip 720p ot msltel] DUB msltel Скачать
1 | 0
Фильмы 2001-2005 [ 744 MB ] Оптом дешевле 2 / Cheaper by the Dozen 2 [2005 HDRip] Dub dexter lex Скачать
1 | 0

28-11-2019 20:33  

Отключить всю рекламу на сайте

    Дорогой пользователь! Огромная просьба, поблагодарите релизера, оцените раздачу и оставьте свои комментарий, если Вы скачали Оптом дешевле 2 через торрент бесплатно! Внесите свою лепту в развитие PiratBit!
    Комментировать посты могут только пользователи прошедшие не сложную регистрацию
    Показать сообщения:    

    Оптом дешевле 2 через торрент
    Скачать бесплатно Оптом дешевле 2
    Оптом дешевле 2 скачать торрент
    Оптом дешевле 2 смотреть онлайн
    Cкачать фильм Оптом дешевле 2 бесплатно
    Оптом дешевле 2 скачать торрент в хорошем качестве
    Оптом дешевле 2 смотреть онлайн бесплатно в хорошем качестве


    Вы не можете начинать темы
    Вы не можете отвечать на сообщения
    Вы не можете редактировать свои сообщения
    Вы не можете удалять свои сообщения
    Вы не можете голосовать в опросах
    Вы не можете прикреплять файлы к сообщениям
    Вы можете скачивать файлы