Ссылка на приватное зеркало нашего сайта всего за 1$. Внимание количество ограничено!!!

2 сезон

iTunes

1 сезон

1

iTunes

iTunes

iTunes

1 сезон

RePack

30

ИГРА 18+

pack

ВАЖНО

!!Акция!!

Alien_RageХит недели

RePack

MK11
pack

Забери бонус

RePack

jed

!!Акция!!

Alien_Rage

RePack

fifa19

RePack

Assassins Creed: Odyssey

RePack

NEED FOR SPEED™ PAYBACK

4 сезон

9 сезон

Бесстыжие 9 сезон

Все сериалы

все сериалы на PB.wtf

RePack

FAR CRY 5
  

Тренировочный день / Training Day (Антуан Фукуа) [2001 г., боевик, триллер, драма, криминал, BDRip 720p, Дубляж, лицензия] pb.wtf

Тренировочный день через торрент pb.wtf

Размер: 3.74 GB | Добавлен: 7 лет 5 мес. назад | Торрент скачан:175 раз
Скачать  

13-05-2013 18:15 Тренировочный день Скачать торрент  

Тренировочный день / Training Day
Год выпуска: 2001
Страна: США, Австралия
Жанр: боевик, триллер, драма, криминал,
Продолжительность: 2:02:02
Перевод: Дубляж, Лицензия
Тип релиза: Лицензия
Субтитры: Отсутствуют

Режиссер: Антуан Фукуа
Продюссер: Роберт Ф. Ньюмайер, Джеффри Сильвер, Дэвид Эйр
Сценарий: Дэвид Эйр

Бюджет: $45 000 000
Премьера в мире: 2 сентября 2001



В ролях: Дензел Вашингтон, Этан Хоук, Скотт Гленн, Том Беренджер, Харрис Юлин, Рэймонд Дж. Бэрри, Клифф Кёртис, Др. Дре, Снуп Догг, Мейси Грей,

Описание: Фильм посвящен событиям, приключившимся в первый день работы новичка-полицейского Джейка Хойта, поступившего на работу в полицию Лос-Анджелеса, а конкретно — в отдел по борьбе с наркотиками. Ему, как это всегда бывает, попался многоопытный партнер — Алонзо, коррумпированный полицейский-ветеран. Американцам уже не привыкать к тому, что на улицах их страны ведется каждодневная война между наркодилерами и полицией. Алонзо давно усвоил тот факт, что законными методами с этим злом бороться бесполезно, а потому он выработал некую философию, балансирующую на грани добра и зла.

Доп. информация: Исходник: BD Remux 1080p

Качество: BDRip 720p
Формат: MKV
Видео кодек: H.264
Аудио кодек: AC3
Видео: 1280x720 at 23.976 fps, MPEG-4 AVC, ~4000 kbps avg
Аудио: Russian; AC3; 384.00 kbps; L C R; 6 ch; 48 kHz; 16 bits DUB |Дубляж, лицензия|
скриншот   скриншот   скриншот   скриншот   скриншот   скриншот   скриншот   скриншот   скриншот  





Общее
Уникальный идентификатор : 200696405028375387558286267336714398784 (0x96FCB8BBECB218BFA225565E2280AC40)
Полное имя : D:RipТренировочный деньTraining Day.mkv
Формат : Matroska
Размер файла : 3,74 Гбайт
Продолжительность : 2 ч. 2 м.
Общий поток : 4385 Кбит/сек
Название фильма : Дрю
Дата кодирования : UTC 2013-05-13 17:06:53
Программа кодирования : mkvmerge v4.6.0 ('Still Crazy After All These Years') сборка от Mar 10 2011 02:50:32
Библиотека кодирования : libebml v1.2.0 + libmatroska v1.1.0

Видео
Идентификатор : 1
Формат : AVC
Формат/Информация : Advanced Video Codec
Профиль формата : High@L4.1
Параметр CABAC формата : Да
Параметр ReFrames формата : 2 кадра
Параметры GOP формата : M=4, N=39
Идентификатор кодека : V_MPEG4/ISO/AVC
Продолжительность : 2 ч. 2 м.
Битрейт : 4000 Кбит/сек
Ширина : 1280 пикс.
Высота : 720 пикс.
Соотношение сторон : 2,35:1
Режим частоты кадров : Переменный
Частота кадров : 23,976 кадр/сек
Цветовое пространство : YUV
Подвыборка цветности : 4:2:0
Битовая глубина : 8 бит
Тип развёртки : Прогрессивная
Бит/(Пиксели*Кадры) : 0.181
Размер потока : 3,34 Гбайт (89%)
Библиотека кодирования : x264 core 130 r2273
Настройки программы : cabac=1 / ref=2 / deblock=1:0:0 / analyse=0x3:0x133 / me=hex / subme=7 / psy=1 / psy_rd=1.00:0.00 / mixed_ref=0 / me_range=16 / chroma_me=1 / trellis=1 / 8x8dct=1 / cqm=0 / deadzone=21,11 / fast_pskip=1 / chroma_qp_offset=-2 / threads=6 / lookahead_threads=1 / sliced_threads=0 / nr=0 / decimate=1 / interlaced=0 / bluray_compat=0 / constrained_intra=0 / bframes=3 / b_pyramid=0 / b_adapt=1 / b_bias=0 / direct=3 / weightb=1 / open_gop=0 / weightp=2 / keyint=230 / keyint_min=23 / scenecut=40 / intra_refresh=0 / rc_lookahead=40 / rc=2pass / mbtree=1 / bitrate=4000 / ratetol=1.0 / qcomp=0.60 / qpmin=10 / qpmax=69 / qpstep=4 / cplxblur=20.0 / qblur=0.5 / vbv_maxrate=24000 / vbv_bufsize=24000 / nal_hrd=none / ip_ratio=1.40 / aq=1:1.00

Аудио
Идентификатор : 2
Формат : AC-3
Формат/Информация : Audio Coding 3
Расширение режима : CM (complete main)
Идентификатор кодека : A_AC3
Продолжительность : 2 ч. 2 м.
Вид битрейта : Постоянный
Битрейт : 384 Кбит/сек
Каналы : 6 каналов
Расположение каналов : Front: L C R, Side: L R, LFE
Частота : 48,0 КГц
Битовая глубина : 16 бит
Метод сжатия : С потерями
Размер потока : 335 Мбайт (9%)
Заголовок : Dub
Язык : Russian

Меню
00:00:00.000 : en:It's Today
00:03:53.524 : en:Tell Me A Story
00:08:02.356 : en:Leave Family Out
00:12:20.072 : en:Drug Roust
00:15:37.394 : en:Narcotics In His Blood
00:20:35.943 : en:Joking With Roger
00:25:42.290 : en:Alley Incident
00:32:13.932 : en:It Takes A Wolf
00:36:12.670 : en:Collaring Sammy
00:40:41.063 : en:Sandman's Wife
00:45:20.467 : en:Firing Line
00:47:15.207 : en:Wolf Or Sheep?
00:49:24.002 : en:Mother And Son
00:55:04.259 : en:LAPD's Finest
00:59:59.762 : en:The Unit Punches In
01:02:56.272 : en:Roger Out Of His Misery
01:09:56.859 : en:The Scenario
01:15:08.253 : en:This Is The Game
01:20:29.699 : en:Five-Card Draw
01:24:17.385 : en:The Drop On The Cop
01:29:26.277 : en:Smiley's Cousin
01:33:27.601 : en:"I'm Here For Alonzo"
01:37:21.335 : en:Preserving Life
01:41:25.579 : en:Rooftop Battle
01:45:00.210 : en:What Jake Learned Today
01:48:44.184 : en:"You Can't Kill Me"
01:52:39.961 : en:Going Home
01:55:43.144 : en:End Credits

pb.wtf



Скачать Тренировочный день через торрент http://pic.kartinco.top/images/2/eume4w39w7.png Скачать фильм Тренировочный день через торрент бесплантно в хорошем качестве Описание: Фильм посвящен событиям, приключившимся в первый день работы новичка-полицейского Джейка Хойта, поступившего на работу в полицию ... 9.5 10 16
Info! Золотая раздача, скачанное не засчитывается.
Торрент: Зарегистрирован [2013-05-13 18:15] · скачан: 175 раз
Статус: √ проверено
Размер: 3.74 GB
Как cкачать? Как скачать Тренировочный день через торрент | qTorrent

% Раздел Тема Автор DL S | L
Фильмы 2001-2005 [ 1.45 GB ] Тренировочный день / Training Day [2001 HDRip] [VO] killermax2013 Скачать
1 | 0
Зарубежные сериалы [ 6.98 GB ] Тренировочный день / Training Day / Сезон: 1 / Серии 1-13 из 13 [2017 WEB-DLRip] [MVO] killermax2013 Скачать
1 | 0
Зарубежные сериалы [ 18.39 GB ] Тренировочный день / Training Day / Сезон: 1 / Серии 1-13 из 13 [2017 WEB-DL 720p] [MVO] killermax2013 Скачать
1 | 0
Зарубежные сериалы [ 365 MB ] Тренировочный день / Training Day / Сезон: 1 / Серии 1 из 13 [2017 HDTVRip] [MVO] killermax2013 Скачать
1 | 0
Фильмы [HD 720p, 1080p] (Хороший звук DUB, MVO) [ 13.3 GB ] Тренировочный день / Training Day [2001 BDRip 1080p] DUB + 2хMVO + 4xAVO + Original Eng от R.G. HD-Films -Lexx- Скачать
2 | 0
Порно фильмы с русским переводом [ 1.43 GB ] Идеальная секретарша 2: Тренировочный День / The Perfect Secretary 2: Training Day [2010 Feature DVDRip одноголосый] Pir@tya2010 Скачать
1 | 0
Порно фильмы с сюжетом [ 1.39 GB ] Идеальная секретарша: Тренировочный День / The Perfect Secretary: Training Day [2010 All Sex Feature Anal Blowjob DVDRip-AVC Оригинал] sheker187 Скачать
1 | 0

28-11-2019 20:33  

Отключить всю рекламу на сайте

08-09-2013 15:19 Тренировочный день Скачать торрент  

Спасибо за раздачу.
Качество отличное.pb.wtf



    Дорогой пользователь! Огромная просьба, поблагодарите релизера, оцените раздачу и оставьте свои комментарий, если Вы скачали Тренировочный день через торрент бесплатно! Внесите свою лепту в развитие PiratBit!
    Комментировать посты могут только пользователи прошедшие не сложную регистрацию
    Показать сообщения:    

    Тренировочный день через торрент
    Скачать бесплатно Тренировочный день
    Тренировочный день скачать торрент
    Тренировочный день смотреть онлайн
    Cкачать фильм Тренировочный день бесплатно
    Тренировочный день скачать торрент в хорошем качестве
    Тренировочный день смотреть онлайн бесплатно в хорошем качестве


    Вы не можете начинать темы
    Вы не можете отвечать на сообщения
    Вы не можете редактировать свои сообщения
    Вы не можете удалять свои сообщения
    Вы не можете голосовать в опросах
    Вы не можете прикреплять файлы к сообщениям
    Вы можете скачивать файлы