новый адрес
Ссылка на приватное зеркало всего за 1$. Внимание количество ограничено!!!

iTunes

1+1

iTunes

мы

iTunes

1

iTunes

Чернобыль

iTunes

Ральф против интернета

Лицензия

ПШазам

Лицензия

Оно 2

Лицензия

30
pack

Вам бонус

ВАЖНО

!!Акция!!

Alien_RageХит недели

RePack

Resident Evil 21

ИГРА 18+

pack

RePack

jed

!!Акция!!

Alien_Rage

RePack

fifa19

RePack

Assassins Creed: Odyssey

RePack

NEED FOR SPEED™ PAYBACK

3 сезон

9 сезон

Бесстыжие 9 сезон

Все сериалы

все сериалы на PB.wtf

RePack

FAR CRY 5
Ребята, катастрофически не хватает 1900р. для оплаты серверов за Октябрь (всвязи с блокировками трафик упал в 3 раза), 1-2р., выручайте.
  

Майские звезды (Станислав Ростоцкий) [1959 г., Драма, военный, DVDRip] pb.wtf

Майские звезды через торрент pb.wtf

Размер: 1.37 GB | Добавлен: 6 лет 6 мес. назад | Торрент скачан:119 раз
Скачать  

14-05-2013 08:29 Майские звезды Скачать торрент  

Майские звезды

Год выпуска: 1959
Страна: СССР, Чехословакия, киностудия им. М. Горького, Filmové Studio Barrandov
Жанр: Драма, военный
Продолжительность: 01:27:42
Перевод: Не требуется
Субтитры: Нет

Режиссер: Станислав Ростоцкий

В ролях: Александр Ханов, Миша Станинец, Вячеслав Тихонов, Яна Брейхова, Михаил Пуговкин, Николай Крючков, Леонид Быков, Юрий Белов, Олег Голубицкий, Николай Довженко, Леонид Чубаров, Зденек Дите, Яна Дитетова, Франтишек Кройцман, Милош Недбал, Ладислав Пешек, Иржина Била, Иржина Богдалова, Франтишек Вноучек, Мария Ежкова, Вера Календова, Владимир Клеменс, Богуслав Купшовский, Марта Майева, Геда Маркова, Отто Мотычка, Мария Надомлейнска, Богуш Рендл, Вацлав Трегл, Иозеф Шидлиховский, Карел Эффа, Йиржи Вондрович, Валентин Зубков, Валентин Кнор, Любомир Костелка, Сватоплук Майер, Мирко Чех

Описание: Май 1945 года. В предместьях Праги простые люди встречают советских солдат-освободителей со слезами радости на глазах. В первые дни затишья кто-то с грустью вспоминает о довоенной жизни; кто-то нежданно встречает свою любовь; кто-то возвращается из вражеских застенков, с надеждой смотря в будущее; а кто-то, пересев из танка в чешский трамвайчик, с теплотой вспоминает свое ремесло вагоновожатого… В эти дни все, кто выжил в пожаре Великой Войны, дают клятву вечно хранить мир на Земле, чтя память тех, кто отдал свою жизнь за простое человеческое счастье.



Качество: DVDRip
Формат: AVI
Видео кодек: XviD
Аудио кодек: AC3
Видео: 720x512 (1.41:1), 25 fps, XviD build 47 ~1836 kbps avg, 0.20 bit/pixel
Аудио: 48 kHz, AC3 Dolby Digital, 3/2 (L,C,R,l,r) + LFE ch, ~384 kbps
Complete name : D:VideoMayskie_zvezdi.avi
Format : AVI
Format/Info : Audio Video Interleave
File size : 1.37 GiB
Duration : 1h 27mn
Overall bit rate : 2 230 Kbps
Writing application : VirtualDubMod 1.5.10.2 (build 2540/release)
Writing library : VirtualDubMod build 2540/release

Video
ID : 0
Format : MPEG-4 Visual
Format profile : Advanced Simple@L5
Format settings, BVOP : 1
Format settings, QPel : No
Format settings, GMC : No warppoints
Format settings, Matrix : Custom
Codec ID : XVID
Codec ID/Hint : XviD
Duration : 1h 27mn
Bit rate : 1 837 Kbps
Width : 720 pixels
Height : 512 pixels
Display aspect ratio : 1.406
Frame rate : 25.000 fps
Color space : YUV
Chroma subsampling : 4:2:0
Bit depth : 8 bits
Scan type : Progressive
Compression mode : Lossy
Bits/(Pixel*Frame) : 0.199
Stream size : 1.13 GiB (82%)
Writing library : XviD 1.2.0.dev47 (UTC 2006-11-01)

Audio
ID : 1
Format : AC-3
Format/Info : Audio Coding 3
Mode extension : CM (complete main)
Format settings, Endianness : Big
Codec ID : 2000
Duration : 1h 27mn
Bit rate mode : Constant
Bit rate : 384 Kbps
Channel(s) : 6 channels
Channel positions : Front: L C R, Side: L R, LFE
Sampling rate : 48.0 KHz
Bit depth : 16 bits
Compression mode : Lossy
Stream size : 241 MiB (17%)
Alignment : Split accross interleaves
Interleave, duration : 40 ms (1.00 video frame)
Interleave, preload duration : 500 ms
pb.wtf



Скачать Майские звезды через торрент http://s07.radikal.ru/i180/1305/9e/a0ea96627ef7.jpg Скачать фильм Майские звезды через торрент бесплантно в хорошем качестве Описание: Май 1945 года. В предместьях Праги простые люди встречают советских солдат-освободителей со слезами радости на глазах. В первые ... 10 10 5
Info! Золотая раздача, скачанное не засчитывается.
Торрент: Зарегистрирован [2013-05-14 08:29] · скачан: 119 раз
Статус: √ проверено
Размер: 1.37 GB
Как cкачать? Как скачать Майские звезды через торрент | qTorrent

% Раздел Тема Автор DL S | L
Кино СССР [ 1.09 GB ] Майские звезды [1959 СССР Чехословакия военный DVDRip-AVC от AVP Studio] AVP Studio Скачать
1 | 0
Кино СССР [ 745 MB ] Майские звезды [1959 СССР Чехословакия военный DVDRip от AVP Studio] AVP Studio Скачать
1 | 0
Кино СССР [ 1.09 GB ] Майские звезды [1959 СССР Чехословакия военный DVDRip от AVP Studio] AVP Studio Скачать
1 | 0


>> Регистрируемся здесь <<






Отзывы и комментарии о схеме читаем и пишем здесь: ---> Отзывы и комментарии о схеме

Новые благодарочки в телеграм довольных пользователей:
скриншот   скриншот   скриншот   скриншот   скриншот
    Дорогой пользователь! Огромная просьба, поблагодарите релизера, оцените раздачу и оставьте свои комментарий, если Вы скачали Майские звезды через торрент бесплатно! Внесите свою лепту в развитие PiratBit!
    Комментировать посты могут только пользователи прошедшие не сложную регистрацию
    Показать сообщения:    

    Майские звезды через торрент
    Скачать бесплатно Майские звезды
    Майские звезды скачать торрент
    Майские звезды смотреть онлайн
    Cкачать фильм Майские звезды бесплатно
    Майские звезды скачать торрент в хорошем качестве
    Майские звезды смотреть онлайн бесплатно в хорошем качестве


    Вы не можете начинать темы
    Вы не можете отвечать на сообщения
    Вы не можете редактировать свои сообщения
    Вы не можете удалять свои сообщения
    Вы не можете голосовать в опросах
    Вы не можете прикреплять файлы к сообщениям
    Вы можете скачивать файлы