Ссылка на приватное зеркало нашего сайта всего за 1$. Внимание количество ограничено!!!

2 сезон

iTunes

1 сезон

1

iTunes

iTunes

iTunes

1 сезон

RePack

30

ИГРА 18+

pack

ВАЖНО

!!Акция!!

Alien_RageХит недели

RePack

MK11
pack

Забери бонус

RePack

jed

!!Акция!!

Alien_Rage

RePack

fifa19

RePack

Assassins Creed: Odyssey

RePack

NEED FOR SPEED™ PAYBACK

4 сезон

9 сезон

Бесстыжие 9 сезон

Все сериалы

все сериалы на PB.wtf

RePack

FAR CRY 5
  

Славные парни / Goodfellas (Мартин Скорсезе) [1990 г., триллер, драма, криминал, биографияслова, BDRip 720p, Дубляж, лицензия] pb.wtf

Славные парни через торрент pb.wtf

Размер: 6.97 GB | Добавлен: 7 лет 5 мес. назад | Торрент скачан:84 раза
Скачать  

14-05-2013 16:34 Славные парни Скачать торрент  



Славные парни / Goodfellas

«Тридцать лет из жизни мафии»

Год выпуска: 1990
Страна: США
Жанр: триллер, драма, криминал, биографияслова,
Продолжительность: 02:25:27
Перевод: Дубляж, Лицензия
Тип релиза: Лицензия
Субтитры: Нет

Режиссер: Мартин Скорсезе
Продюссер: Ирвин Уинклер, Барбара Де Фина, Брюс С. Пастин
Сценарий: Николас Пиледжи, Мартин Скорсезе

Бюджет: $25 000 000
Премьера в мире: 12 сентября 1990



Мировой рейтинг IMDB 8.80 (414 581)



В ролях: Роберт Де Ниро, Рэй Лиотта, Джо Пеши, Лоррейн Бракко, Пол Сорвино, Фрэнк Сиверо, Тони Дарроу, Майк Старр, Фрэнк Винсент, Чак Лоу, Всеволод Кузнецов, Валерий Сторожик, Егор Грамматиков, Вячеслав Баранов, Дмитрий Полонский,

Описание: Генри Хилл — начинающий гангстер, занимающийся грабежами вместе с Джими Конвеем и Томми Де Вито, которые с легкостью убивают любого, кто встает у них на пути восхождения к вершинам Мафии. Приходит время когда Генри, сам пострадавший от своих напарников, должен приложить руку к началу конца Джими и Томми...

Качество: BDRip 720p
Формат: MKV
Видео кодек: H.264
Аудио кодек: AC3
Видео: 1280x720 (16:9), 23.976 fps, 4 800 Kbps (0.217 bit/pixel)
Аудио #1: AC-3, 48.0 KHz, 6 ch, 384 Kbps, CBR (Russian) |(дубляж)|
Аудио #2: AC-3, 48.0 KHz, 6 ch, 448 Kbps, CBR (Russian) |(П.Гланц и И. Королёва)|
Аудио #3: AC-3, 48.0 KHz, 6 ch, 448 Kbps, CBR (Russian) |(Михалёв)|
Аудио #4: AC-3, 48.0 KHz, 6 ch, 640 Kbps, CBR (English)












General
Unique ID : 172043000141855602482279524379040368432 (0x816E46CD42F0BE928609EC1E444B4730)
Complete name : F:Славные парни.1990.720p.x264.BDRip.mkv
Format : Matroska
Format version : Version 2
File size : 6.97 GiB
Duration : 2h 25mn
Overall bit rate : 6 857 Kbps
Movie name : Славные парни
Encoded date : UTC 2013-05-04 11:05:15
Writing application : mkvmerge v5.8.0 ('No Sleep / Pillow') built on Sep 2 2012 15:37:04
Writing library : libebml v1.2.3 + libmatroska v1.3.0

Video
ID : 1
Format : AVC
Format/Info : Advanced Video Codec
Format profile : High@L4.1
Format settings, CABAC : Yes
Format settings, ReFrames : 8 frames
Codec ID : V_MPEG4/ISO/AVC
Duration : 2h 25mn
Bit rate : 4 800 Kbps
Width : 1 280 pixels
Height : 720 pixels
Display aspect ratio : 16:9
Frame rate mode : Constant
Frame rate : 23.976 fps
Color space : YUV
Chroma subsampling : 4:2:0
Bit depth : 8 bits
Scan type : Progressive
Bits/(Pixel*Frame) : 0.217
Stream size : 4.88 GiB (70%)
Writing library : x264 core 125 r2208 d9d2288
Encoding settings : cabac=1 / ref=8 / deblock=1:-1:-1 / analyse=0x3:0x133 / me=umh / subme=11 / psy=1 / psy_rd=1.00:0.05 / mixed_ref=1 / me_range=32 / chroma_me=1 / trellis=2 / 8x8dct=1 / cqm=0 / deadzone=21,11 / fast_pskip=0 / chroma_qp_offset=-3 / threads=3 / lookahead_threads=1 / sliced_threads=0 / nr=0 / decimate=1 / interlaced=0 / bluray_compat=0 / constrained_intra=0 / bframes=8 / b_pyramid=2 / b_adapt=2 / b_bias=0 / direct=1 / weightb=1 / open_gop=0 / weightp=2 / keyint=250 / keyint_min=23 / scenecut=40 / intra_refresh=0 / rc=crf / mbtree=0 / crf=17.0 / qcomp=0.60 / qpmin=0 / qpmax=69 / qpstep=4 / ip_ratio=1.40 / pb_ratio=1.30 / aq=2:1.00
Language : English
Default : Yes
Forced : No

Audio #1
ID : 2
Format : AC-3
Format/Info : Audio Coding 3
Mode extension : CM (complete main)
Format settings, Endianness : Big
Codec ID : A_AC3
Duration : 2h 25mn
Bit rate mode : Constant
Bit rate : 384 Kbps
Channel(s) : 6 channels
Channel positions : Front: L C R, Side: L R, LFE
Sampling rate : 48.0 KHz
Bit depth : 16 bits
Compression mode : Lossy
Stream size : 400 MiB (6%)
Title : AC3, 6ch 384kbps (Dubbed)
Language : Russian
Default : Yes
Forced : No

Audio #2
ID : 3
Format : AC-3
Format/Info : Audio Coding 3
Mode extension : CM (complete main)
Format settings, Endianness : Big
Codec ID : A_AC3
Duration : 2h 25mn
Bit rate mode : Constant
Bit rate : 448 Kbps
Channel(s) : 6 channels
Channel positions : Front: L C R, Side: L R, LFE
Sampling rate : 48.0 KHz
Bit depth : 16 bits
Compression mode : Lossy
Stream size : 466 MiB (7%)
Title : AC3, 6ch 448kbps (Glanz)
Language : Russian
Default : No
Forced : No

Audio #3
ID : 4
Format : AC-3
Format/Info : Audio Coding 3
Mode extension : CM (complete main)
Format settings, Endianness : Big
Codec ID : A_AC3
Duration : 2h 25mn
Bit rate mode : Constant
Bit rate : 448 Kbps
Channel(s) : 6 channels
Channel positions : Front: L C R, Side: L R, LFE
Sampling rate : 48.0 KHz
Bit depth : 16 bits
Compression mode : Lossy
Stream size : 466 MiB (7%)
Title : AC3, 6ch 448kbps (Mihalev)
Language : Russian
Default : No
Forced : No

Audio #4
ID : 5
Format : AC-3
Format/Info : Audio Coding 3
Mode extension : CM (complete main)
Format settings, Endianness : Big
Codec ID : A_AC3
Duration : 2h 25mn
Bit rate mode : Constant
Bit rate : 640 Kbps
Channel(s) : 6 channels
Channel positions : Front: L C R, Side: L R, LFE
Sampling rate : 48.0 KHz
Bit depth : 16 bits
Compression mode : Lossy
Delay relative to video : 42ms
Stream size : 666 MiB (9%)
Title : AC3, 6ch 640kbps
Language : English
Default : No
Forced : No


Славные парни скачать торрент






pb.wtf



Скачать Славные парни через торрент http://pic.kartinco.top/images/2/pevli1mgb8.jpg Скачать фильм Славные парни через торрент бесплантно в хорошем качестве Описание: Генри Хилл — начинающий гангстер, занимающийся грабежами вместе с Джими Конвеем и Томми Де Вито, которые с легкостью убивают ... 9.9 10 16
Info! Золотая раздача, скачанное не засчитывается.
Торрент: Зарегистрирован [2013-05-14 16:34] · скачан: 84 раз
Статус: √ проверено
Размер: 6.97 GB
Как cкачать? Как скачать Славные парни через торрент | qTorrent

% Раздел Тема Автор DL S | L
Фильмы с авторской озвучкой [ 2.9 GB ] Славные парни / Goodfellas [1990 биография BDRip] [AVO] killermax2013 Скачать
2 | 0
Ultra HD (UHD: 2K, 4K, 8K) — видео сверхвысокой чёткости [ 89.31 GB ] Славные парни / Goodfellas [1990 биография UHD Blu-ray 2160p] - [] sheker187 Скачать
1 | 0
Фильмы до 2000 г. [ 2.91 GB ] Славные парни / Goodfellas [1990 биография BDRip] killermax2013 Скачать
2 | 0
Фильмы [HD 720p, 1080p] (Хороший звук DUB, MVO) [ 22.45 GB ] Славные парни / Goodfellas [1990 биография BDRip 1080p Remastered from a 4k ] 2xDUB DVO _denis_100 Скачать
1 | 0
Фильмы до 2000 г. [ 3.56 GB ] Славные парни / Goodfellas [1990 биография BDRip] 4x[AVO] killermax2013 Скачать
1 | 0
Фильмы до 2000 г. [ 2.9 GB ] Славные парни / Goodfellas [1990 биография ... BDRip] chaga2009 Скачать
1 | 0
Фильмы (Blu-ray, BD-Remux, HDDVD) [ 18.42 GB ] Славные парни / Goodfellas [1990 биография BDRemux 1080p] DUB Ворон Скачать
1 | 0

28-11-2019 20:33  

Отключить всю рекламу на сайте

    Дорогой пользователь! Огромная просьба, поблагодарите релизера, оцените раздачу и оставьте свои комментарий, если Вы скачали Славные парни через торрент бесплатно! Внесите свою лепту в развитие PiratBit!
    Комментировать посты могут только пользователи прошедшие не сложную регистрацию
    Показать сообщения:    

    Славные парни через торрент
    Скачать бесплатно Славные парни
    Славные парни скачать торрент
    Славные парни смотреть онлайн
    Cкачать фильм Славные парни бесплатно
    Славные парни скачать торрент в хорошем качестве
    Славные парни смотреть онлайн бесплатно в хорошем качестве


    Вы не можете начинать темы
    Вы не можете отвечать на сообщения
    Вы не можете редактировать свои сообщения
    Вы не можете удалять свои сообщения
    Вы не можете голосовать в опросах
    Вы не можете прикреплять файлы к сообщениям
    Вы можете скачивать файлы