1 сезон

1 сезон

iTunes

1

КиноПоиск HD

Кинопоиск HD

iTunes

13

1 сезон

RePack

30

Новинка

ВАЖНО

ИГРА 18+

pack

RePack

MK11
pack

Легкие деньги

RePack

jed

RePack

fifa19

RePack

RDR2

RePack

NEED FOR SPEED™ PAYBACK

4 сезон

9 сезон

Бесстыжие 9 сезон

Все сериалы

все сериалы на PB.wtf

RePack

FAR CRY 5
  
Magnet ссылка

Дикая банда / Deuces Wild (Скотт Кэлверт / Scott Kalvert) [2002 г., драма, боевик, DVDRip] MVO pb.wtf

Дикая банда через торрент pb.wtf

Размер: 746 MB | Добавлен: 7 лет 10 мес. назад | Торрент скачан:53 раза
Скачать  

16-05-2013 09:17 Дикая банда Скачать торрент  

Дикая банда / Deuces Wild Год выпуска: 2002
Страна: США
Жанр: драма, боевик
Продолжительность: 01:32:44.000
Перевод: Профессиональный (многоголосый, закадровый)
Русские субтитры: нет

Режиссер: Скотт Кэлверт / Scott Kalvert

В ролях: Стивен Дорф, Брэд Рэнфро, Норман Ридус, Файруза Балк, Фрэнки Муниц, Дэбби Харри, Мэтт Диллон, Джеймс Франко

Описание: "Дикая банда" - история двух семей из Парка Заката. В семье Сента было три сына. Младшего - мальчика-Али, соблазнили и приучили к наркотикам "Змеи". К старшему сыну Леону (Стивен Дорф), лидеру "Бесов" и его младшему брату Бобби (Брэд Ренфро) вскоре присоединяется живущий по соседству парнишка Скуч (Френки Муниц), восхищающийся Леоном и мечтающий вырасти и наконец-то стать "Бесом". Вниз по улице живет семья Полита - еще один дом без отца, где дети ухаживают за больной матерью Венди (Дебора Харри). Ее дочь Энни (Фейруза Болк) - главарь банды девчонок "Бархатные" влюблена в Бобби - младшего из семьи Сента. Джимми Полита (Балтазар Гетти) - злой и бездушный "Змей", для которого свидания его сестры с "Бесом" не только личная обида, но и оскорбление всей банде. Среди "Змей" и их лидера Марко (Норман Ридус) один из первых разумных парней Бруклина - Фритси Зеннетти (Мэт Дилkон), чьи руководство и пистолет разрушают все на своем пути. Вторая неделя июля полностью меняет их жизнь.

Качество: DVDRip
Формат: AVI
Видео кодек: XviD
Аудио кодек: MP3
Видео: 640x464 (1.38:1), 25 fps, XviD Final 1.0.3 (build 37) ~986 kbps avg, 0.13 bit/pixel
Аудио: 48 kHz, MPEG Layer 3, 2 ch, ~128.00 kbps avg
General
Format : AVI
Format/Info : Audio Video Interleave
File size : 746 MiB
Duration : 1h 32mn
Overall bit rate : 1 124 Kbps
Writing application : VirtualDubMod 1.5.10.2 (build 2540/release)
Writing library : VirtualDubMod build 2540/release
Video
Format : MPEG-4 Visual
Format profile : Simple@L3
Format settings, BVOP : Yes
Format settings, QPel : No
Format settings, GMC : No warppoints
Format settings, Matrix : Default
Muxing mode : Packed bitstream
Codec ID : XVID
Codec ID/Hint : XviD
Duration : 1h 32mn
Bit rate : 986 Kbps
Width : 640 pixels
Height : 464 pixels
Display aspect ratio : 1.379
Frame rate : 25.000 fps
Resolution : 24 bits
Colorimetry : 4:2:0
Scan type : Progressive
Bits/(Pixel*Frame) : 0.133
Stream size : 654 MiB (88%)
Writing library : XviD 1.0.3 (UTC 2004-12-20)
Audio
Format : MPEG Audio
Format version : Version 1
Format profile : Layer 3
Codec ID : 55
Codec ID/Hint : MP3
Duration : 1h 32mn
Bit rate mode : Constant
Bit rate : 128 Kbps
Channel(s) : 2 channels
Sampling rate : 48.0 KHz
Resolution : 16 bits
Stream size : 84.9 MiB (11%)
Alignment : Aligned on interleaves
Interleave, duration : 40 ms (1.00 video frame)
Interleave, preload duration : 504 ms
скриншот  скриншот  скриншот  скриншот  
pb.wtf



Скачать Дикая банда через торрент http://uploadpic.ru/img/2013-05/16/mwi3q4hrx28suo4d52hl97klh.jpg Скачать фильм Дикая банда через торрент бесплантно в хорошем качестве Описание: "Дикая банда" - история двух семей из Парка Заката. В семье Сента было три сына. Младшего - мальчика-Али, соблазнили и приучили ... 8.7 10 3
Info! Золотая раздача, скачанное не засчитывается.
Торрент: Зарегистрирован [2013-05-16 09:17] · скачан: 53 раз
Статус: √ проверено
Размер: 746 MB
Как cкачать? Как скачать Дикая банда через торрент | UTorrent

28-11-2019 20:33  

Отключить всю рекламу на сайте

16-05-2013 11:15 Дикая банда Скачать торрент  

посмотрим
[wikipb.wtf



    Дорогой пользователь! Огромная просьба, поблагодарите релизера, оцените раздачу и оставьте свои комментарий, если Вы скачали Дикая банда через торрент бесплатно! Внесите свою лепту в развитие PiratBit!
    Комментировать посты могут только пользователи прошедшие не сложную регистрацию
    Показать сообщения:    

    Дикая банда через торрент
    Скачать бесплатно Дикая банда
    Дикая банда скачать торрент
    Дикая банда смотреть онлайн
    Cкачать фильм Дикая банда бесплатно
    Дикая банда скачать торрент в хорошем качестве
    Дикая банда смотреть онлайн бесплатно в хорошем качестве


    Вы не можете начинать темы
    Вы не можете отвечать на сообщения
    Вы не можете редактировать свои сообщения
    Вы не можете удалять свои сообщения
    Вы не можете голосовать в опросах
    Вы не можете прикреплять файлы к сообщениям
    Вы можете скачивать файлы