2 сезон

iTunes

MVO

1

2 сезон

iTunes

iTunes

1 сезон

RePack

30

Новинка

ВАЖНО

ИГРА 18+

pack

RePack

MK11
pack

Легкие деньги

RePack

jed

RePack

fifa19

RePack

RDR2

RePack

NEED FOR SPEED™ PAYBACK

4 сезон

9 сезон

Бесстыжие 9 сезон

Все сериалы

все сериалы на PB.wtf

RePack

FAR CRY 5

Anonymous, доброе утро, мы не успеваем собрать деньги на оплату серверов за декабрь и январь, помогите нам пожалуйста в это трудное время. В качестве благодарности мы отключим Вам всю рекламу на сайте (укажите свой ник в строку Ваше имя)!

×
  
Magnet ссылка

iСтив / iSteve (Райан Перез) [2013 г., комедия, биография, WEB-DLRip AVC, MVO [студия Кравец]] pb.wtf

iСтив через торрент pb.wtf

Размер: 1.61 GB | Добавлен: 7 лет 8 мес. назад | Торрент скачан:915 раз
Скачать  

16-05-2013 12:11 iСтив Скачать торрент  

iСтив / iSteve


Год выпуска: 2013
Страна: США
Жанр: комедия, биография,
Продолжительность: 01:18:55
Перевод: Профессиональный многоголосый [студия Кравец]

Режиссер: Райан Перез
Продюссер: Эллисон Хорд, Майкл Фара, Мишель Дайан Фокс
Сценарий: Райан Перез, Дэнни Элинек, Чарльз Ингрэм

Премьера в мире: 15 апреля 2013

Мировой рейтинг IMDB 5.40 (274)


В ролях: Джон Росс Боуи, Шон Бойл, Д’Арси Эрокан, Д’Арси Карден, Mike Carlson, Ник Кориросси, Эвин Дас, Джилл Доннелли, Дешиел Дрисколл, Арт Эванс,

Описание: Биографический фильм о жизни Стива Джобса в комической форме.

Качество: WEB-DLRip AVC
Формат: MKV
Видео кодек: H.264
Аудио кодек: AC3
Видео: MPEG4 Video (H264) 2441 Kbps, 1280x720 23.976fps
Аудио 1: Русский - AC3 2.0, 192 Кбит/сек
Аудио 2: Английский - AC3 2.0, 224 Кбит/сек


Скриншоты:
скриншот   скриншот   скриншот   скриншот  
General
Unique ID : 188165988456120816540384192136570030151 (0x8D8F737FC3CBF3859DF36382DEB14847)
Complete name : E:ФильмыiSteve.2013.WEBRip.mkv
Format : Matroska
Format version : Version 4 / Version 2
File size : 1.61 GiB
Duration : 1h 18mn
Overall bit rate : 2 915 Kbps
Encoded date : UTC 2013-05-15 18:00:25
Writing application : mkvmerge v6.2.0 ('Promised Land') built on Apr 28 2013 12:22:01
Writing library : libebml v1.3.0 + libmatroska v1.4.0

Video
ID : 1
Format : AVC
Format/Info : Advanced Video Codec
Format profile : Main@L3.1
Format settings, CABAC : Yes
Format settings, ReFrames : 3 frames
Format settings, GOP : M=1, N=48
Codec ID : V_MPEG4/ISO/AVC
Duration : 1h 18mn
Bit rate : 2 441 Kbps
Width : 1 280 pixels
Height : 720 pixels
Display aspect ratio : 16:9
Frame rate mode : Constant
Frame rate : 23.976 fps
Color space : YUV
Chroma subsampling : 4:2:0
Bit depth : 8 bits
Scan type : Progressive
Bits/(Pixel*Frame) : 0.110
Stream size : 1.35 GiB (84%)
Writing library : Zencoder Video Encoding System
Default : Yes
Forced : No

Audio #1
ID : 2
Format : AC-3
Format/Info : Audio Coding 3
Mode extension : CM (complete main)
Format settings, Endianness : Big
Codec ID : A_AC3
Duration : 1h 18mn
Bit rate mode : Constant
Bit rate : 192 Kbps
Channel(s) : 2 channels
Channel positions : Front: L R
Sampling rate : 44.1 KHz
Bit depth : 16 bits
Compression mode : Lossy
Stream size : 108 MiB (7%)
Language : Russian
Default : Yes
Forced : No

Audio #2
ID : 3
Format : AC-3
Format/Info : Audio Coding 3
Mode extension : CM (complete main)
Format settings, Endianness : Big
Codec ID : A_AC3
Duration : 1h 18mn
Bit rate mode : Constant
Bit rate : 224 Kbps
Channel(s) : 2 channels
Channel positions : Front: L R
Sampling rate : 44.1 KHz
Bit depth : 16 bits
Compression mode : Lossy
Stream size : 126 MiB (8%)
Language : English
Default : No
Forced : No


iСтив скачать торрент


pb.wtf



Скачать iСтив через торрент http://pic.kartinco.top/images/2/r11ffxlug2.jpg Скачать фильм iСтив через торрент бесплантно в хорошем качестве Описание: Биографический фильм о жизни Стива Джобса в комической ... 9.3 10 28
Info! Золотая раздача, скачанное не засчитывается.
Торрент: Зарегистрирован [2013-05-16 12:11] · скачан: 915 раз
Статус: √ проверено
Размер: 1.61 GB
Как cкачать? Как скачать iСтив через торрент | UTorrent

28-11-2019 20:33  

Отключить всю рекламу на сайте

16-05-2013 12:29 iСтив Скачать торрент  

2 скрин аааа Хёрли , Лост pb.wtf



16-05-2013 14:58 iСтив Скачать торрент  

ахахах виртуальная реальность у них просто супер))))pb.wtf



20-05-2013 16:58 iСтив Скачать торрент  

О Мавроди тоже сняли "биографию". Домыслы, бред и анекдоты о жизни реальных людей.pb.wtf



20-06-2013 21:23 iСтив Скачать торрент  

Джобс просто спёр идеи и разработки Возняка и красиво продал. Он отличный менеджер, но фильм нужно было про Возняка снимать. :umnik:pb.wtf



22-06-2013 09:16 iСтив Скачать торрент  

medium63 писал(а):

Джобс просто спёр идеи и разработки Возняка и красиво продал. Он отличный менеджер, но фильм нужно было про Возняка снимать. :umnik:

Не он первый и не последний. У всех хороший учитель Эдисон.pb.wtf



    Дорогой пользователь! Огромная просьба, поблагодарите релизера, оцените раздачу и оставьте свои комментарий, если Вы скачали iСтив через торрент бесплатно! Внесите свою лепту в развитие PiratBit!
    Комментировать посты могут только пользователи прошедшие не сложную регистрацию
    Показать сообщения:    

    iСтив через торрент
    Скачать бесплатно iСтив
    iСтив скачать торрент
    iСтив смотреть онлайн
    Cкачать фильм iСтив бесплатно
    iСтив скачать торрент в хорошем качестве
    iСтив смотреть онлайн бесплатно в хорошем качестве


    Вы не можете начинать темы
    Вы не можете отвечать на сообщения
    Вы не можете редактировать свои сообщения
    Вы не можете удалять свои сообщения
    Вы не можете голосовать в опросах
    Вы не можете прикреплять файлы к сообщениям
    Вы можете скачивать файлы