Ссылка на приватное зеркало всего за 1$. Внимание количество ограничено!!!

iTunes

1+1

iTunes

мы

WEB-DL

1

iTunes

Чернобыль

iTunes

Ральф против интернета

Лицензия

ПШазам

Лицензия

Оно 2

Лицензия

30
pack

Вам бонус

ВАЖНО

!!Акция!!

Alien_RageХит недели

RePack

Resident Evil 21

ИГРА 18+

pack

RePack

jed

!!Акция!!

Alien_Rage

RePack

fifa19

RePack

Assassins Creed: Odyssey

RePack

NEED FOR SPEED™ PAYBACK

3 сезон

9 сезон

Бесстыжие 9 сезон

Все сериалы

все сериалы на PB.wtf

RePack

FAR CRY 5
Ребята, катастрофически не хватает 1900р. для оплаты серверов за Октябрь (всвязи с блокировками трафик упал в 3 раза), 1-2р., выручайте.
  

Непокорные / Deep Dark Canyon (Абе Леви, Сильвер Три) [2013 г., боевик, триллер, драма, WEB-DLRip, Дубляж] / Чистый звук pb.wtf

Непокорные через торрент pb.wtf

Размер: 699 MB | Добавлен: 6 лет 6 мес. назад | Торрент скачан:374 раза
Скачать  

16-05-2013 18:38 Непокорные Скачать торрент  

Непокорные / Deep Dark Canyon
Год выпуска: 2013
Страна: США
Жанр: боевик, триллер, драма,
Продолжительность: 01:29:42
Перевод: Дубляж | Чистый звук

Режиссер: Абе Леви Сильвер Три
Продюссер: Брэндон Баррера, Абе Леви, Сильвер Три
Сценарий: Абе Леви, Сильвер Три

Бюджет: 23 апреля 2013
Премьера в мире: 23 апреля 2013

IMDB 5.20 (114)


В ролях: Тед Левайн, Спенсер Трит Кларк, Ник Эверсман, Мартин Старр, Майкл Боуэн, Мэттью Лиллард, Джастин Бэйтмен, Абрахам Бенруби, Брэндон Баррера, Миша Бородаев,

Описание: Два брата во время охоты случайно убивают мэра своего городка. Мальчишки вынуждены бежать, а их отец, местный шериф, оказывается перед выбором: спасти своих сыновей или поступить так, как велит закон.

Качество: WEB-DLRip
Формат: AVI
Видео кодек: XviD
Аудио кодек: MP3
Видео: AVI (XviD), 640x272, 952 kb/s, 25 fps
Аудио#1: MP3 , 48 KHz, 2 ch, 128 kbps

Общее
Полное имя : D:ТорентыNepokornie.2013.D.WEBDLRip.700MB.avi
Формат : AVI
Формат/Информация : Audio Video Interleave
Размер файла : 699 Мбайт
Продолжительность : 1 ч. 29 м.
Общий поток : 1090 Кбит/сек
Программа кодирования : VirtualDubMod 1.5.10.2 (build 2540/release)
Библиотека кодирования : VirtualDubMod build 2540/release

Видео
Идентификатор : 0
Формат : MPEG-4 Visual
Профиль формата : Advanced Simple@L5
Параметр BVOP формата : 2
Параметр QPel формата : Нет
Параметр GMC формата : Без точки перехода
Параметр матрицы формата : Default (H.263)
Режим смешивания : Сжатый битовый поток
Идентификатор кодека : XVID
Идентификатор кодека/Подсказка : XviD
Продолжительность : 1 ч. 29 м.
Битрейт : 952 Кбит/сек
Ширина : 640 пикселей
Высота : 272 пикселя
Соотношение сторон : 2,35:1
Частота кадров : 23,976 кадра/сек
Цветовое пространство : YUV
Субдискретизация насыщенности : 4:2:0
Битовая глубина : 8 бит
Тип развёртки : Прогрессивная
Метод сжатия : С потерями
Бит/(Пиксели*Кадры) : 0.228
Размер потока : 611 Мбайт (87%)
Библиотека кодирования : XviD 1.2.0.dev47 (UTC 2006-11-01)

Аудио
Идентификатор : 1
Формат : MPEG Audio
Версия формата : Version 1
Профиль формата : Layer 3
Режим : Joint stereo
Расширение режима : MS Stereo
Идентификатор кодека : 55
Идентификатор кодека/Подсказка : MP3
Продолжительность : 1 ч. 29 м.
Вид битрейта : Постоянный
Битрейт : 128 Кбит/сек
Каналы : 2 канала
Частота : 48,0 КГц
Метод сжатия : С потерями
Размер потока : 82,1 Мбайт (12%)
Выравнивание : Соединение по промежуткам
Продолжительность промежутка : 42 мс. (1,00 видеокадр)
Время предзагрузки промежутка : 504 мс.


Непокорные скачать торрент


pb.wtf



Скачать Непокорные через торрент http://i46.fastpic.ru/big/2013/0516/c9/05c61c2da97cf487732da4998ae80fc9.png Скачать фильм Непокорные через торрент бесплантно в хорошем качестве Описание: Два брата во время охоты случайно убивают мэра своего городка. Мальчишки вынуждены бежать, а их отец, местный шериф, оказывается ... 8.6 10 16
Info! Золотая раздача, скачанное не засчитывается.
Торрент: Зарегистрирован [2013-05-16 18:38] · скачан: 374 раз
Статус: T временная
Размер: 699 MB
Как cкачать? Как скачать Непокорные через торрент | qTorrent

28-11-2019 20:33  

Отключить всю рекламу на сайте

    Дорогой пользователь! Огромная просьба, поблагодарите релизера, оцените раздачу и оставьте свои комментарий, если Вы скачали Непокорные через торрент бесплатно! Внесите свою лепту в развитие PiratBit!
    Комментировать посты могут только пользователи прошедшие не сложную регистрацию
    Показать сообщения:    

    Непокорные через торрент
    Скачать бесплатно Непокорные
    Непокорные скачать торрент
    Непокорные смотреть онлайн
    Cкачать фильм Непокорные бесплатно
    Непокорные скачать торрент в хорошем качестве
    Непокорные смотреть онлайн бесплатно в хорошем качестве


    Вы не можете начинать темы
    Вы не можете отвечать на сообщения
    Вы не можете редактировать свои сообщения
    Вы не можете удалять свои сообщения
    Вы не можете голосовать в опросах
    Вы не можете прикреплять файлы к сообщениям
    Вы можете скачивать файлы