Ссылка на приватное зеркало нашего сайта всего за 1$. Внимание количество ограничено!!!

2 сезон

iTunes

1 сезон

1

2 сезон

2 сезон

iTunes

1 сезон

RePack

30

Новинка

ВАЖНО

ИГРА 18+

pack

RePack

MK11
pack

Забери бонус

RePack

jed

!!Акция!!

Alien_Rage

RePack

fifa19

RePack

Assassins Creed: Odyssey

RePack

NEED FOR SPEED™ PAYBACK

4 сезон

9 сезон

Бесстыжие 9 сезон

Все сериалы

все сериалы на PB.wtf

RePack

FAR CRY 5
  

Сомнамбула (Алексей Смирнов) [2012 г., Россия, триллер, драма, DVDRip] лицензия pb.wtf

Сомнамбула через торрент pb.wtf

Размер: 1.46 GB | Добавлен: 7 лет 6 мес. назад | Торрент скачан:395 раз
Скачать  

17-05-2013 04:20 Сомнамбула Скачать торрент  

Сомнамбула
Год выпуска: 2012
Страна: Россия / ЛёРев
Жанр: триллер, драма
Продолжительность: 01:17:59
Перевод: Не требуется
Cубтитры: Нет

Режиссер: Алексей Смирнов

В ролях: Сергей Апрельский, Андрей Дементьев, Мария Ясная, Александр Златопольский, Марина Гапченко, Георгий Колтушкин, Сергей Ковалёв, Николай Михайлов, Вера Сибирёва, Мария Ясная
Описание: Фильм основан на истории произошедшей в Интернате для детей сирот в Воронежской области, куда в 1993 году поступил 7-ми летний Андрей Яковлев. Внимание всего Интерната к мальчику приковали странные события, которые происходили с ним почти каждую ночь. Утром на теле мальчика появлялись ссадины, и царапины. Охрана патрулировала по корпусу каждый час, ночные дежурные не сводили с мальчика глаз — но так ничего и не выяснили. 3 августа 1993 года в спальнях интерната установили камеры видеонаблюдения. То, что запечатлели камеры шокировало сотрудников Интерната и привлекло внимание спецслужб. С виду обычный ребенок, обладающий множеством талантов и перспектив на будущее, поневоле создал огромный ажиотаж вокруг себя, а некоторые факты из его биографии были засекречены. В основу фильма легли секретные файлы, кадры камер видеонаблюдения датированные 1993 годом, а также свидетельства очевидцев.

Качество: DVDRip
Формат: AVI
Видео кодек: XviD
Аудио кодек: АС3
Видео: 720x400 (1.80:1), 25 fps, XviD build 73 ~2214 kbps avg, 0.31 bit/pixel
Аудио: 48 kHz, AC3 Dolby Digital, 3/2 (L,C,R,l,r) + LFE ch, ~448 kbps

Раздача от:
D:Мои рипыSomnambula.2012.O.DVDRip.1.45[YTN] by dexter lex.avi
General
Complete name : D:Мои рипыSomnambula.2012.O.DVDRip.1.45[YTN] by dexter lex.avi
Format : AVI
Format/Info : Audio Video Interleave
File size : 1.46 GiB
Duration : 1h 17mn
Overall bit rate : 2 672 Kbps
Writing application : VirtualDubMod 1.5.10.3 | www.virtualdub-fr.org || (build 2550/release)
Writing library : VirtualDubMod build 2550/release
Video #0
ID : 0
Format : MPEG-4 Visual
Format profile : Advanced Simple@L5
Format settings, BVOP : 1
Format settings, QPel : No
Format settings, GMC : No warppoints
Format settings, Matrix : Custom
Codec ID : XVID
Codec ID/Hint : XviD
Duration : 1h 17mn
Bit rate : 2 214 Kbps
Width : 720 pixels
Height : 400 pixels
Display aspect ratio : 1:80:1
Frame rate : 25.000 fps
Color space : YUV
Chroma subsampling : 4:2:0
Bit depth : 8 bits
Scan type : Progressive
Compression mode : Lossy
Bits/(Pixel*Frame) : 0.308
Stream size : 1.21 GiB (83%)
Writing library : XviD 73
Audio #1
ID : 1
Format : AC-3
Format/Info : Audio Coding 3
Mode extension : CM (complete main)
Format settings, Endianness : Big
Codec ID : 2000
Duration : 1h 17mn
Bit rate mode : Constant
Bit rate : 448 Kbps
Channel(s) : 6 channels
Channel positions : Front: L C R, Side: L R, LFE
Sampling rate : 48.0 KHz
Bit depth : 16 bits
Compression mode : Lossy
Stream size : 250 MiB (17%)
Alignment : Split accross interleaves
Interleave, duration : 40 ms (1.00 video frame)
Interleave, preload duration : 500 ms
pb.wtf



Скачать Сомнамбула через торрент http://i48.fastpic.ru/big/2013/0517/6e/744527d52aa3f28a46c6a18890bc176e.jpg Скачать фильм Сомнамбула через торрент бесплантно в хорошем качестве Описание: Фильм основан на истории произошедшей в Интернате для детей сирот в Воронежской области, куда в 1993 году поступил 7-ми летний ... 8.6 10 12
Info! Золотая раздача, скачанное не засчитывается.
Торрент: Зарегистрирован [2013-05-17 04:20] · скачан: 395 раз
Статус: √ проверено
Размер: 1.46 GB
Как cкачать? Как скачать Сомнамбула через торрент | qTorrent

% Раздел Тема Автор DL S | L
Наши новые фильмы 2012 [ 743 MB ] Сомнамбула [2012 Россия DVDRip] лицензия dexter lex Скачать
1 | 0
Наши новые фильмы 2012 [ 1.37 GB ] Сомнамбула [2012 DVDRip] лицензия diletant Скачать
1 | 0


Последний раз редактировалось: dexter lex (2013-05-17 06:22), всего редактировалось 1 раз

28-11-2019 20:33  

Отключить всю рекламу на сайте

17-05-2013 04:23 Сомнамбула Скачать торрент  

http://pb.wtf/topic/111591/

AR маленько нарушен, ошибка разница аспектов -3.13pb.wtf



    Дорогой пользователь! Огромная просьба, поблагодарите релизера, оцените раздачу и оставьте свои комментарий, если Вы скачали Сомнамбула через торрент бесплатно! Внесите свою лепту в развитие PiratBit!
    Комментировать посты могут только пользователи прошедшие не сложную регистрацию
    Показать сообщения:    

    Сомнамбула через торрент
    Скачать бесплатно Сомнамбула
    Сомнамбула скачать торрент
    Сомнамбула смотреть онлайн
    Cкачать фильм Сомнамбула бесплатно
    Сомнамбула скачать торрент в хорошем качестве
    Сомнамбула смотреть онлайн бесплатно в хорошем качестве


    Вы не можете начинать темы
    Вы не можете отвечать на сообщения
    Вы не можете редактировать свои сообщения
    Вы не можете удалять свои сообщения
    Вы не можете голосовать в опросах
    Вы не можете прикреплять файлы к сообщениям
    Вы можете скачивать файлы