Ссылка на приватное зеркало нашего сайта всего за 1$. Внимание количество ограничено!!!

2 сезон

iTunes

1 сезон

1

iTunes

iTunes

iTunes

1 сезон

RePack

30

ИГРА 18+

pack

ВАЖНО

!!Акция!!

Alien_RageХит недели

RePack

MK11
pack

Забери бонус

RePack

jed

!!Акция!!

Alien_Rage

RePack

fifa19

RePack

Assassins Creed: Odyssey

RePack

NEED FOR SPEED™ PAYBACK

4 сезон

9 сезон

Бесстыжие 9 сезон

Все сериалы

все сериалы на PB.wtf

RePack

FAR CRY 5
  

Зона. Тюремный роман / Сезон: 1 / Серии: 50 из 50 (Петр Штейн) [2006 г., Тюремный роман, 12х DVD9] pb.wtf

Зона. Тюремный роман через торрент pb.wtf

Размер: 88.23 GB | Добавлен: 7 лет 5 мес. назад | Торрент скачан:172 раза
Скачать  

17-05-2013 07:16 Зона. Тюремный роман Скачать торрент  

Зона. Тюремный роман
50 серий

Год выпуска: 2006
Производство: Россия, World Studios
Жанр: Тюремный роман
Продолжительность: 50 х 00:44:04
Перевод: Не требуется
Субтитры: Нет

Режиссёр: Петр Штейн

В ролях: Александр Тараньжин, Олег Протасов, Игорь Карташе, Игорь Филиппов, Луиза Мосендз, Адам Чекман, Андрей Филиппак, Сергей Моложае, Вадим Медведев, Олег Гераськин, Федор Малышев, Дмитрий Супонин, Александр Батрак, Виктор Коношенков, Алексей Агрызков, Лара Чаклин, Эдуард Федашко, Сергей Иванов, Ромуальд Вильдан, Николай Ковбас, Даниил Грецов, Андрей Семенов, Руслан Кулешов, Роман Данилычев

Описание: Фильм основан на реальных шокирующих историях, записанных в зонах, тюрьмах и пересылочных пунктах страны. Жестокая сущность зоны с ее порядками, чудовищной иерархией, скрытыми преступлениями предстанет перед зрителями во всех подробностях и с максимальной степенью достоверности. Начало проекту дала рукопись, которую, минуя тюремную цензуру, передали на студию люди, находящиеся «по ту сторону решетки». К созданию сериала подключилась группа специальных сценаристов. Впервые в истории мирового кино и телевидения в проекте, помимо актеров, участвуют настоящие заключенные.



Качество: 12х DVD9
Формат: DVD Video
Видео кодек: MPEG2
Аудио кодек: AC3
Видео: PAL 4:3 (720x576) VBR
Аудио: Russian Dolby AC3, 5 ch
Title: Zona.01-04
Size: 7.39 Gb ( 7 751 234,00 KBytes ) - DVD-9
Enabled regions: 1, 2, 3, 4, 5, 6

VTS_01 :
Play Length: 00:00:15
Video: PAL 4:3 (720x576) VBR
Audio:
Russian (Dolby AC3, 2 ch)

VTS_02 :
Play Length: 00:00:22
Video: PAL 4:3 (720x576) VBR
Audio:
Russian (Dolby AC3, 5 ch)

VTS_03 :
Play Length: 00:44:44
Video: PAL 4:3 (720x576) VBR
Audio:
Russian (Dolby AC3, 5 ch)

VTS_04 :
Play Length: 00:44:43
Video: PAL 4:3 (720x576) VBR
Audio:
Russian (Dolby AC3, 5 ch)

VTS_05 :
Play Length: 00:44:47
Video: PAL 4:3 (720x576) VBR
Audio:
Russian (Dolby AC3, 5 ch)

VTS_06 :
Play Length: 00:44:40
Video: PAL 4:3 (720x576) VBR
Audio:
Russian (Dolby AC3, 5 ch)

* Menus Information *

VIDEO_TS Menu
Video:
PAL 4:3 (720x576) VBR
English Language Unit :
Title Menu

VTS_01 Menu
Video:
PAL 4:3 (720x576) VBR
Audio:
Not specified (Dolby AC3, 2 ch)
English Language Unit :
Root Menu

VTS_02 Menu
Video:
PAL 4:3 (720x576) VBR
English Language Unit :
Root Menu

VTS_03 Menu
Video:
PAL 4:3 (720x576) VBR
English Language Unit :
Root Menu

VTS_04 Menu
Video:
PAL 4:3 (720x576) VBR
English Language Unit :
Root Menu

VTS_05 Menu
Video:
PAL 4:3 (720x576) VBR
English Language Unit :
Root Menu

VTS_06 Menu
Video:
PAL 4:3 (720x576) VBR
English Language Unit :
Root Menu
Complete name : D:VideoZona.Turemnyi.roman.(50.seriy.iz.50).2006.12xDVD-9Zona.01-04VIDEO_TSVTS_03_1.VOB
Format : MPEG-PS
File size : 1 024 MiB
Duration : 24mn 59s
Overall bit rate mode : Variable
Overall bit rate : 5 730 Kbps

Video
ID : 224 (0xE0)
Format : MPEG Video
Format version : Version 2
Format profile : Main@Main
Format settings, BVOP : Yes
Format settings, Matrix : Custom
Format settings, GOP : M=2, N=12
Duration : 24mn 59s
Bit rate mode : Variable
Bit rate : 5 167 Kbps
Maximum bit rate : 8 000 Kbps
Width : 720 pixels
Height : 576 pixels
Display aspect ratio : 4:3
Frame rate : 25.000 fps
Standard : PAL
Color space : YUV
Chroma subsampling : 4:2:0
Bit depth : 8 bits
Scan type : Interlaced
Scan order : Top Field First
Compression mode : Lossy
Bits/(Pixel*Frame) : 0.498
Stream size : 923 MiB (90%)

Audio
ID : 189 (0xBD)-128 (0x80)
Format : AC-3
Format/Info : Audio Coding 3
Mode extension : CM (complete main)
Format settings, Endianness : Big
Muxing mode : DVD-Video
Duration : 24mn 58s
Bit rate mode : Constant
Bit rate : 448 Kbps
Channel(s) : 5 channels
Channel positions : Front: L C R, Side: L R
Sampling rate : 48.0 KHz
Bit depth : 16 bits
Compression mode : Lossy
Stream size : 80.0 MiB (8%)

pb.wtf



Скачать Зона. Тюремный роман через торрент http://i51.fastpic.ru/big/2013/0321/67/4d8cb62cc99c5ba9545c01047d741967.png Скачать фильм Зона. Тюремный роман через торрент бесплантно в хорошем качестве Описание: Фильм основан на реальных шокирующих историях, записанных в зонах, тюрьмах и пересылочных пунктах страны. Жестокая сущность зоны ... 9.9 10 23
Info! Золотая раздача, скачанное не засчитывается.
Торрент: Зарегистрирован [2013-05-17 07:16] · скачан: 172 раз
Статус: √ проверено
Размер: 88.23 GB
Как cкачать? Как скачать Зона. Тюремный роман через торрент | qTorrent

28-11-2019 20:33  

Отключить всю рекламу на сайте

17-05-2013 07:45 Зона. Тюремный роман Скачать торрент  

Название маленько подправил.

Сериал просто бомба :)pb.wtf



17-05-2013 08:25 Зона. Тюремный роман Скачать торрент  

он полный (то есть версия ) или же заканчивается на самом интересном и оставшиеся серии ждать путем выхода продолжения ? Просто раньше смотрел закончился сериал как то неуместно. (отсюда и вопрос задал.)pb.wtf



17-05-2013 08:35 Зона. Тюремный роман Скачать торрент  

К большому сожалению, продолжения нет.. так как умер режиссер сериала Петр Штейн.pb.wtf



17-05-2013 08:43 Зона. Тюремный роман Скачать торрент  

Сериал классный, зря продолжения небудет:(pb.wtf



17-05-2013 14:17 Зона. Тюремный роман Скачать торрент  

Сериал просто шикарный.. Жаль, нет продолжения..pb.wtf



18-05-2013 23:55 Зона. Тюремный роман Скачать торрент  

а какого вы продолжения ждали??это не дом 2 в городские квартиры они не переедут))))и так 50 серий...а фильм и правда хорош немного не правдоподобно но хорош...pb.wtf



04-07-2013 16:52 Зона. Тюремный роман Скачать торрент  

Да фильм бомба я уже раз шесть пересмотрел.Игра актеров очень понравилась,некоторые вроде дебютировали в этом фильме Саня Веселый,а сыграл просто класс.Кто не смотрел советую.Да продолжения к сожалению нет.pb.wtf



03-02-2016 02:29 Зона. Тюремный роман Скачать торрент  

дайте раздачу, плииииизpb.wtf



    Дорогой пользователь! Огромная просьба, поблагодарите релизера, оцените раздачу и оставьте свои комментарий, если Вы скачали Зона. Тюремный роман через торрент бесплатно! Внесите свою лепту в развитие PiratBit!
    Комментировать посты могут только пользователи прошедшие не сложную регистрацию
    Показать сообщения:    

    Зона. Тюремный роман через торрент
    Скачать бесплатно Зона. Тюремный роман
    Зона. Тюремный роман скачать торрент
    Зона. Тюремный роман смотреть онлайн
    Cкачать фильм Зона. Тюремный роман бесплатно
    Зона. Тюремный роман скачать торрент в хорошем качестве
    Зона. Тюремный роман смотреть онлайн бесплатно в хорошем качестве


    Вы не можете начинать темы
    Вы не можете отвечать на сообщения
    Вы не можете редактировать свои сообщения
    Вы не можете удалять свои сообщения
    Вы не можете голосовать в опросах
    Вы не можете прикреплять файлы к сообщениям
    Вы можете скачивать файлы