Ссылка на приватное зеркало нашего сайта всего за 1$. Внимание количество ограничено!!!

2 сезон

iTunes

1 сезон

1

iTunes

iTunes

iTunes

1 сезон

RePack

30

ИГРА 18+

pack

ВАЖНО

!!Акция!!

Alien_RageХит недели

RePack

MK11
pack

Забери бонус

RePack

jed

!!Акция!!

Alien_Rage

RePack

fifa19

RePack

Assassins Creed: Odyssey

RePack

NEED FOR SPEED™ PAYBACK

4 сезон

9 сезон

Бесстыжие 9 сезон

Все сериалы

все сериалы на PB.wtf

RePack

FAR CRY 5
  

Невозможное / Lo imposible (Хуан Антонио Байона) [2012 г., драма, BDRip 720p, MVO + Оригинал] pb.wtf

Невозможное через торрент pb.wtf

Размер: 6.42 GB | Добавлен: 7 лет 7 мес. назад | Торрент скачан:209 раз
Скачать  

06-03-2013 18:43 Невозможное Скачать торрент  

Невозможное / Lo imposible

Год выпуска: 2012
Страна: Испания
Жанр: драма
Продолжительность: 01:48:57
Перевод: Профессиональный многоголосый + Оригинал
Субтитры: English

Режиссер: Хуан Антонио Байона
Продюссер: Белен Атьенца, Альваро Аугустин, Гислен Баруа
Сценарий: Серхио Х. Санчес, Мария Белон

Мировой рейтинг IMDB 7.60 (49 354)


В ролях: Наоми Уоттс, Юэн МакГрегор, Том Холлэнд, Сэмюэл Джослин, Оакли Пендергаст, Марта Этура, Шенке Мёринг, Джеральдин Чаплин, Плой Хиндачоте, Жомжаои Сэ-Лим, Людмила Шувалова, Сергей Бурунов, Лев Аксельрод

Описание: Лента о событиях, разворачивающихся на фоне цунами 2004 года.

Доп. информация: Сохранены оригинальные чаптеры как на Blu-Ray.

Качество: BDRip 720p
Формат: MKV
Видео кодек: H.26x
Аудио кодек: AC3
Видео: 1280 x 542 (2.362) at 24.000 fps AVC at 7038 Кбит/сек
Аудио#1: AC-3 at 448 Кбит/сек 6 каналов, 48,0 КГц RUS
Аудио#2: AC-3 at 448 Кбит/сек 6 каналов, 48,0 КГц ENG
Релиз от: =Sудья=
Общее
Уникальный идентификатор : 184657696480657553044971453702131937380 (0x8AEBC759A0CD609EB9EB40629D1FF064)
Полное имя : D:ФильмыThe.Impossible.2012.P.BDRip.720p.Rus.Eng.ac3.=Sудья=.mkv
Формат : Matroska
Версия формата : Version 4 / Version 2
Размер файла : 6,42 Гбайт
Продолжительность : 1 ч. 53 м.
Общий поток : 8095 Кбит/сек
Название фильма : The Impossible (2012) - Release for HDCLUB
Дата кодирования : UTC 2010-02-22 21:41:31
Программа кодирования : mkvmerge v5.9.0 ('On The Loose') built on Dec 9 2012 15:37:01
Библиотека кодирования : libebml v1.3.0 + libmatroska v1.4.0

Видео
Идентификатор : 1
Формат : AVC
Формат/Информация : Advanced Video Codec
Профиль формата : High@L4.1
Параметр CABAC формата : Да
Параметр ReFrames формата : 11 кадров
Режим смешивания : Header stripping
Идентификатор кодека : V_MPEG4/ISO/AVC
Продолжительность : 1 ч. 53 м.
Битрейт : 7038 Кбит/сек
Ширина : 1280 пикселей
Высота : 542 пикселя
Соотношение сторон : 2,35:1
Частота кадров : 24,000 кадра/сек
Цветовое пространство : YUV
Субдискретизация насыщенности : 4:2:0
Битовая глубина : 8 бит
Тип развёртки : Прогрессивная
Бит/(Пиксели*Кадры) : 0.423
Размер потока : 5,58 Гбайт (87%)
Заголовок : The.Impossible.2012.720p.BluRay.Rus.Eng.mkv
Библиотека кодирования : x264 core 129 r2245 bc13772
Настройки программы : cabac=1 / ref=11 / deblock=1:-3:-3 / analyse=0x3:0x113 / me=tesa / subme=9 / psy=1 / psy_rd=0.95:0.00 / mixed_ref=1 / me_range=16 / chroma_me=1 / trellis=2 / 8x8dct=1 / cqm=0 / deadzone=21,11 / fast_pskip=0 / chroma_qp_offset=-2 / threads=12 / lookahead_threads=2 / sliced_threads=0 / nr=0 / decimate=0 / interlaced=0 / bluray_compat=0 / constrained_intra=0 / bframes=10 / b_pyramid=2 / b_adapt=2 / b_bias=0 / direct=3 / weightb=1 / open_gop=0 / weightp=2 / keyint=250 / keyint_min=24 / scenecut=40 / intra_refresh=0 / rc=crf / mbtree=0 / crf=15.5 / qcomp=0.50 / qpmin=0 / qpmax=69 / qpstep=4 / ip_ratio=1.40 / pb_ratio=1.30 / aq=1:0.70
Язык : English
Default : Нет
Forced : Да
Коэффициенты матрицы : BT.709-5, BT.1361, IEC 61966-2-4 709, SMPTE RP177

Аудио #1
Идентификатор : 2
Формат : AC-3
Формат/Информация : Audio Coding 3
Расширение режима : CM (complete main)
Режим смешивания : Header stripping
Идентификатор кодека : A_AC3
Продолжительность : 1 ч. 53 м.
Вид битрейта : Постоянный
Битрейт : 448 Кбит/сек
Каналы : 6 каналов
Расположение каналов : Front: L C R, Side: L R, LFE
Частота : 48,0 КГц
Битовая глубина : 16 бит
Метод сжатия : С потерями
Размер потока : 364 Мбайт (6%)
Заголовок : AC3 5.1 @ 448 kbps - MVO, studio Omicron
Язык : Russian
Default : Да
Forced : Да

Аудио #2
Идентификатор : 3
Формат : AC-3
Формат/Информация : Audio Coding 3
Расширение режима : CM (complete main)
Режим смешивания : Header stripping
Идентификатор кодека : A_AC3
Продолжительность : 1 ч. 53 м.
Вид битрейта : Постоянный
Битрейт : 448 Кбит/сек
Каналы : 6 каналов
Расположение каналов : Front: L C R, Side: L R, LFE
Частота : 48,0 КГц
Битовая глубина : 16 бит
Метод сжатия : С потерями
Размер потока : 364 Мбайт (6%)
Заголовок : AC3 5.1 @ 448 kbps
Язык : English
Default : Нет
Forced : Нет

Текст
Идентификатор : 4
Формат : UTF-8
Идентификатор кодека : S_TEXT/UTF8
Идентификатор кодека/Информация : UTF-8 Plain Text
Заголовок : English
Язык : English
Default : Нет
Forced : Нет

Меню
00:00:00.000 : en:00:00:00.000
00:07:10.292 : en:00:07:10.292
00:12:50.875 : en:00:12:50.875
00:21:20.250 : en:00:21:20.250
00:27:02.625 : en:00:27:02.625
00:31:59.083 : en:00:31:59.083
00:38:13.792 : en:00:38:13.792
00:44:35.833 : en:00:44:35.833
00:51:09.125 : en:00:51:09.125
00:56:24.042 : en:00:56:24.042
01:03:24.583 : en:01:03:24.583
01:10:14.500 : en:01:10:14.500
01:15:27.292 : en:01:15:27.292
01:23:51.083 : en:01:23:51.083
01:36:00.500 : en:01:36:00.500


Невозможное скачать торрент


pb.wtf



Скачать Невозможное через торрент http://pic.kartinco.top/images/2/spqql67wj2.png Скачать фильм Невозможное через торрент бесплантно в хорошем качестве Описание: Лента о событиях, разворачивающихся на фоне цунами 2004 года.Доп. информация: Сохранены оригинальные чаптеры как на ... 9.3 10 4
Info! Золотая раздача, скачанное не засчитывается.
Торрент: Зарегистрирован [2013-03-06 18:43] · скачан: 209 раз
Статус: √ проверено
Размер: 6.42 GB
Как cкачать? Как скачать Невозможное через торрент | qTorrent

% Раздел Тема Автор DL S | L
Фильмы 2012 [ 1.46 GB ] Невозможное / The Impossible / Lo imposible [2012 BDRip лицензия] Ворон Скачать
2 | 0
Фильмы 2012 [ 2.18 GB ] Невозможное / Lo imposible [ 2012 Испания BDRip-AVC лицензия] МАКС1 Скачать
1 | 0
Фильмы (Blu-ray, BD-Remux, HDDVD) [ 19.7 GB ] Невозможное / Lo imposible [2012 Blu-Ray лицензия] voovaz Скачать
1 | 0
T Фильмы [HD 720p, 1080p] (Хороший звук DUB, MVO) [ 7.26 GB ] Невозможное / Lo imposible [2012 BDRip 720p Чистый звук] Ke$h@ Скачать
1 | 0
Фильмы 2012 [ 1.46 GB ] Невозможное / The Impossible / Lo imposible [2012 BDRip] diletant Скачать
1 | 1
Фильмы [HD 720p, 1080p] (Хороший звук DUB, MVO) [ 13.06 GB ] Невозможное / The Impossible / Lo imposible [2012 BDRip 1080p] diletant Скачать
1 | 2
Фильмы [HD 720p, 1080p] (Хороший звук DUB, MVO) [ 8.1 GB ] Невозможное / The Impossible / Lo imposible [2012 BDRip 720p] diletant Скачать
1 | 1

28-11-2019 20:33  

Отключить всю рекламу на сайте

06-03-2013 21:05 Невозможное Скачать торрент  

Цитата:

Профессиональный многоголосый

кто озвучивал?pb.wtf



07-03-2013 08:29 Невозможное Скачать торрент  

diletant писал(а):

Цитата:

Профессиональный многоголосый

кто озвучивал?

Если так сильно важно открой медиоинфо, читай заголовки.pb.wtf



07-03-2013 08:36 Невозможное Скачать торрент  

Sудья писал(а):

diletant писал(а):

Цитата:

Профессиональный многоголосый

кто озвучивал?

Если так сильно важно открой медиоинфо, читай заголовки.

в этом то и дело, откуда у омикрона многоголосая озвучка? или они сделали ее специально для вас?pb.wtf



10-04-2013 17:17 Невозможное Скачать торрент  

Какая разница кто озвучивает. Лучше отзывы о фильме пишите..
Как всегда, народу скачает 1000 чел, а комментариев о фильме один в лучшем случае!pb.wtf



10-04-2013 17:20 Невозможное Скачать торрент  

Кстати про фильм отзывы на сайтах очень хорошие. Заценим )pb.wtf



13-04-2013 11:54 Невозможное Скачать торрент  

Хороший, фильм , спасибоpb.wtf



    Дорогой пользователь! Огромная просьба, поблагодарите релизера, оцените раздачу и оставьте свои комментарий, если Вы скачали Невозможное через торрент бесплатно! Внесите свою лепту в развитие PiratBit!
    Комментировать посты могут только пользователи прошедшие не сложную регистрацию
    Показать сообщения:    

    Невозможное через торрент
    Скачать бесплатно Невозможное
    Невозможное скачать торрент
    Невозможное смотреть онлайн
    Cкачать фильм Невозможное бесплатно
    Невозможное скачать торрент в хорошем качестве
    Невозможное смотреть онлайн бесплатно в хорошем качестве


    Вы не можете начинать темы
    Вы не можете отвечать на сообщения
    Вы не можете редактировать свои сообщения
    Вы не можете удалять свои сообщения
    Вы не можете голосовать в опросах
    Вы не можете прикреплять файлы к сообщениям
    Вы можете скачивать файлы