Ссылка на приватное зеркало нашего сайта всего за 1$. Внимание количество ограничено!!!

2 сезон

iTunes

1 сезон

1

2 сезон

2 сезон

iTunes

1 сезон

RePack

30

Новинка

ВАЖНО

ИГРА 18+

pack

RePack

MK11
pack

Забери бонус

RePack

jed

!!Акция!!

Alien_Rage

RePack

fifa19

RePack

Assassins Creed: Odyssey

RePack

NEED FOR SPEED™ PAYBACK

4 сезон

9 сезон

Бесстыжие 9 сезон

Все сериалы

все сериалы на PB.wtf

RePack

FAR CRY 5
  

21 и больше / 21 & Over (Джон Лукас, Скотт Мур) [2013 г., комедия, Blu-ray 1080p] pb.wtf

21 и больше через торрент pb.wtf

Размер: 21.46 GB | Добавлен: 7 лет 6 мес. назад | Торрент скачан:42 раза
Скачать  

17-05-2013 16:25 21 и больше Скачать торрент  

21 и больше / 21 & Over


Год выпуска: 2013
Страна: США
Жанр: комедия,
Продолжительность: 01:33:05
Перевод: Дубляж

Режиссер: Джон Лукас Скотт Мур
Продюссер: Дэвид Хоберман, Райан Кэвэна, Тодд Либерман
Сценарий: Джон Лукас, Скотт Мур

Бюджет: $13 000 000
Премьера в мире: 28 февраля 2013

IMDB 5.70 (8 673)


В ролях: Майлз Теллер, Скайлар Эстин, Джастин Чон, Сара Райт, Джонатан Кельтц, Франсуа Чау, Расселл Ходжкинсон, Дэниэл Буко, Расселл Меркадо, Джози Лорен, Сергей Смирнов, Александр Дасевич, Даниил Эльдаров, Диомид Виноградов,

Описание: Двое друзей подбивают третьего отметить его 21-ый день рождения прямо накануне важного экзамена в медицинский колледж. Никто не замечает, как одна кружка пива превращается в море выпивки, а вечеринка — в бурное и незабываемое приключение с музыкой и девчонками. И где же они окажутся утром?

Качество: Blu-ray 1080p
Формат: BDAV
Видео кодек: H.264
Аудио кодек: DTS, TrueHD / AC-3, AC-3
Видео: MPEG4 Video (H264) 25906 kbps, 1920x1080 23.976fps
Аудио 1: Русский DTS-HD MA 5.1 (48 kHz / 2108 kbps / 16-bit) (Дубляж)
Аудио 2: Русский Dolby TrueHD 5.1 (48 kHz / 1631 kbps / 16-bit) (Дубляж)
Аудио 3: Русский Dolby Digital 2.0 (192 kbps) (Дубляж)

Скриншоты:

скриншот   скриншот   скриншот   скриншот  

General
ID : 0 (0x0)
Complete name : E:21_OVERBDMVSTREAM�0007.m2ts
Format : BDAV
Format/Info : Blu-ray Video
File size : 21.4 GiB
Duration : 1h 33mn
Overall bit rate mode : Variable
Overall bit rate : 32.9 Mbps
Maximum Overall bit rate : 48.0 Mbps

Video
ID : 4113 (0x1011)
Menu ID : 1 (0x1)
Format : AVC
Format/Info : Advanced Video Codec
Format profile : High@L4.1
Format settings, CABAC : Yes
Format settings, ReFrames : 4 frames
Codec ID : 27
Duration : 1h 33mn
Bit rate mode : Variable
Maximum bit rate : 37.0 Mbps
Width : 1 920 pixels
Height : 1 080 pixels
Display aspect ratio : 16:9
Frame rate : 23.976 fps
Standard : NTSC
Color space : YUV
Chroma subsampling : 4:2:0
Bit depth : 8 bits
Scan type : Progressive
Color primaries : BT.709
Transfer characteristics : BT.709
Matrix coefficients : BT.709

Audio #1
ID : 4352 (0x1100)
Menu ID : 1 (0x1)
Format : DTS
Format/Info : Digital Theater Systems
Format profile : MA / Core
Mode : 16
Format settings, Endianness : Big
Muxing mode : Stream extension
Codec ID : 134
Duration : 1h 33mn
Bit rate mode : Variable
Bit rate : Unknown / 1 509 Kbps
Channel(s) : 6 channels
Channel positions : Front: L C R, Side: L R, LFE
Sampling rate : 48.0 KHz
Bit depth : 16 bits
Compression mode : Lossless / Lossy

Audio #2
ID : 4353 (0x1101)
Menu ID : 1 (0x1)
Format : TrueHD / AC-3
Mode extension : CM (complete main)
Format settings, Endianness : Big
Muxing mode : Stream extension
Codec ID : 131
Duration : 1h 33mn
Bit rate mode : Variable / Constant
Bit rate : 448 Kbps
Maximum bit rate : 2 688 Kbps
Channel(s) : 6 channels
Channel positions : Front: L C R, Side: L R, LFE
Sampling rate : 48.0 KHz
Bit depth : 16 bits
Stream size : 298 MiB (1%)

Audio #3
ID : 4354 (0x1102)
Menu ID : 1 (0x1)
Format : AC-3
Format/Info : Audio Coding 3
Mode extension : CM (complete main)
Format settings, Endianness : Big
Codec ID : 129
Duration : 1h 33mn
Bit rate mode : Constant
Bit rate : 192 Kbps
Channel(s) : 2 channels
Channel positions : Front: L R
Sampling rate : 48.0 KHz
Bit depth : 16 bits
Compression mode : Lossy
Stream size : 128 MiB (1%)

pb.wtf



Скачать 21 и больше через торрент http://pic.kartinco.top/images/2/k933soiy8x.jpg Скачать фильм 21 и больше через торрент бесплантно в хорошем качестве Описание: Двое друзей подбивают третьего отметить его 21-ый день рождения прямо накануне важного экзамена в медицинский колледж. Никто не ... 7.4 10 7
Info! Золотая раздача, скачанное не засчитывается.
Торрент: Зарегистрирован [2013-05-17 16:25] · скачан: 42 раз
Статус: √ проверено
Размер: 21.46 GB
Как cкачать? Как скачать 21 и больше через торрент | qTorrent

28-11-2019 20:33  

Отключить всю рекламу на сайте

17-05-2013 16:53 21 и больше Скачать торрент  

мега отстойная фигня pb.wtf



17-05-2013 17:32 21 и больше Скачать торрент  

killermax2013 писал(а):

мега отстойная фигня

банан тебе в ангар... фильм во :good:pb.wtf



17-05-2013 18:39 21 и больше Скачать торрент  

Skymantis писал(а):

killermax2013 писал(а):

мега отстойная фигня

банан тебе в ангар... фильм во :good:

детям до 15-ти прокатит pb.wtf



17-05-2013 19:18 21 и больше Скачать торрент  

Народ, а может кто подсказать - когда будет озвучка по версии куражъ-бомбей?pb.wtf



17-05-2013 20:28 21 и больше Скачать торрент  

На самом деле довольно слабый фильм, на уровне американских пирогов.pb.wtf



18-05-2013 07:04 21 и больше Скачать торрент  

ща заценимpb.wtf



    Дорогой пользователь! Огромная просьба, поблагодарите релизера, оцените раздачу и оставьте свои комментарий, если Вы скачали 21 и больше через торрент бесплатно! Внесите свою лепту в развитие PiratBit!
    Комментировать посты могут только пользователи прошедшие не сложную регистрацию
    Показать сообщения:    

    21 и больше через торрент
    Скачать бесплатно 21 и больше
    21 и больше скачать торрент
    21 и больше смотреть онлайн
    Cкачать фильм 21 и больше бесплатно
    21 и больше скачать торрент в хорошем качестве
    21 и больше смотреть онлайн бесплатно в хорошем качестве


    Вы не можете начинать темы
    Вы не можете отвечать на сообщения
    Вы не можете редактировать свои сообщения
    Вы не можете удалять свои сообщения
    Вы не можете голосовать в опросах
    Вы не можете прикреплять файлы к сообщениям
    Вы можете скачивать файлы