1 сезон

3 сезон

iTunes

1

Line

MVO

iTunes

13

1 сезон

RePack

30

Deluxe

pack

Лицензия

ВАЖНО

ИГРА 18+

pack

RePack

MK11

RePack

jed

RePack

fifa19

RePack

RDR2

RePack

NEED FOR SPEED™ PAYBACK

4 сезон

9 сезон

Бесстыжие 9 сезон

Все сериалы

все сериалы на PB.wtf

RePack

FAR CRY 5

Anonymous, доброй ночи, мы катастрофически не успеваем собрать деньги на оплату серверов, помогите нам пожалуйста 5,10,15р., для нас важна любая помощь . В качестве благодарности мы отключим Вам всю рекламу на сайте (укажите свой ник в строку Ваше имя)!

×
  
Magnet ссылка

Интервью с убийцей / Interview with a Hitman (Перри Бандал / Perry Bhandal) [2012, боевик, триллер, DVD5] R5 pb.wtf

Интервью с убийцей через торрент pb.wtf

Размер: 3.69 GB | Добавлен: 8 лет 2 мес. назад | Торрент скачан:129 раз
Скачать  

17-05-2013 19:23 Интервью с убийцей Скачать торрент  


Интервью с убийцей / Interview with a Hitman
Страна: Великобритания
Студия: Kirlian Pictures, Northern Film and Media, Northstar Ventures, Scanner-Rhodes Productions
Жанр: боевик, триллер
Год выпуска: 2012
Мировая премьера: 20 июля 2012
Дата выхода DVD: 20 мая 2013
Продолжительность: 01:31:59
Перевод: Профессиональный (многоголосый закадровый) [Лицензия]
Cубтитры: нет
Оригинальная аудиодорожка: нет
Режиссер: Перри Бандал / Perry Bhandal
В ролях: Люк Госс, Каролин Тилетт, Стивен Маркус, Молли Хэрмон, Бранко Томович, Адриан Буше, Рэй Пантаки, Филип Уитчёрч, Дермот Кини, Патрик Листе
Описание: Не доверяй никому! Ничего не чувствуй! Никогда не проигрывай! Эти три правила помогли Виктору достичь вершины карьеры и стать элитным наемным убийцей. Но однажды те, кто обычно делал заказ ему, получили заказ на него и Виктор вынужден бежать из страны, инсценировав свою смерть. Его путь лежит на родину — в Румынию, где живут люди, которые хотят убить его.
Бонусы: нет

Релиз группы:
Качество: DVD5 R5
Формат: DVD-Video
Видео кодек: MPEG2
Аудио кодек: AC3
Видео: PAL 16:9 (720x576(0.483)) MPEG Video, 25,000 кадр/сек, 5003 Кбит/сек
Аудио: Russian (Dolby AC3, 6 ch) 448 Кбит/сек, 48,0 КГц



Title: Intervju.s.ubijcej.2012.DVD5
Size: 3.69 Gb ( 3 866 464,00 KBytes ) - DVD-5
Enabled regions: 1, 2, 3, 4, 5, 6, 7, 8

VTS_01 :
Play Length: 00:00:10
Video: PAL 4:3 (720x576) VBR
Audio:
Russian (Dolby AC3, 2 ch)

VTS_02 :
Play Length: 01:31:59
Video: PAL 16:9 (720x576) VBR, Auto Letterboxed
Audio:
Russian (Dolby AC3, 6 ch)

* Menus Information *

VIDEO_TS Menu
Video:
PAL 4:3 (720x576) VBR
English Language Unit :
Title Menu

VTS_01 Menu
Video:
PAL 16:9 (720x576) VBR
Auto Letterboxed
Audio:
Not specified (Dolby AC3, 2 ch)
English Language Unit :
Root Menu

VTS_02 Menu
Video:
PAL 4:3 (720x576) VBR
English Language Unit :
Root Menu
Общее
Полное имя : M:Новинки 2013Intervju.s.ubijcej.2012.DVD5VIDEO_TSVTS_02_3.VOB
Формат : MPEG-PS
Размер файла : 1024 Мбайт
Продолжительность : 25 м.
Режим общего битрейта : Переменный
Общий поток : 5562 Кбит/сек

Видео
Идентификатор : 224 (0xE0)
Формат : MPEG Video
Версия формата : Version 2
Профиль формата : Main@Main
Параметр BVOP формата : Да
Параметр матрицы формата : Выборочная
Параметр GOP формата : M=3, N=15
Продолжительность : 25 м.
Вид битрейта : Переменный
Битрейт : 5003 Кбит/сек
Максимальный битрейт : 9000 Кбит/сек
Ширина : 720 пикселей
Высота : 576 пикселей
Соотношение сторон : 16:9
Частота кадров : 25,000 кадров/сек
Стандарт вещания : PAL
Цветовое пространство : YUV
Субдискретизация насыщенности : 4:2:0
Битовая глубина : 8 бит
Тип развёртки : Прогрессивная
Метод сжатия : С потерями
Бит/(Пиксели*Кадры) : 0.483
TimeCode_FirstFrame : 00:51:26:03
TimeCode_Source : Group of pictures header
Размер потока : 921 Мбайт (90%)

Аудио
Идентификатор : 189 (0xBD)-128 (0x80)
Формат : AC-3
Формат/Информация : Audio Coding 3
Расширение режима : CM (complete main)
Параметр Endianness формата : Big
Режим смешивания : DVD-Video
Продолжительность : 25 м.
Вид битрейта : Постоянный
Битрейт : 448 Кбит/сек
Каналы : 6 каналов
Расположение каналов : Front: L C R, Side: L R, LFE
Частота : 48,0 КГц
Битовая глубина : 16 бит
Метод сжатия : С потерями
Задержка видео : -200 мс.
Размер потока : 82,5 Мбайт (8%)










pb.wtf



Скачать Интервью с убийцей через торрент http://s53.radikal.ru/i140/1305/6c/743ab3388bc6.jpg Скачать фильм Интервью с убийцей через торрент бесплантно в хорошем качестве Описание: Не доверяй никому! Ничего не чувствуй! Никогда не проигрывай! Эти три правила помогли Виктору достичь вершины карьеры и стать ... 9.4 10 5
Info! Золотая раздача, скачанное не засчитывается.
Торрент: Зарегистрирован [2013-05-17 19:23] · скачан: 129 раз
Статус: √ проверено
Размер: 3.69 GB
Как cкачать? Как скачать Интервью с убийцей через торрент | UTorrent

28-11-2019 20:33  

Отключить всю рекламу на сайте

    Дорогой пользователь! Огромная просьба, поблагодарите релизера, оцените раздачу и оставьте свои комментарий, если Вы скачали Интервью с убийцей через торрент бесплатно! Внесите свою лепту в развитие PiratBit!
    Комментировать посты могут только пользователи прошедшие не сложную регистрацию
    Показать сообщения:    

    Интервью с убийцей через торрент
    Скачать бесплатно Интервью с убийцей
    Интервью с убийцей скачать торрент
    Интервью с убийцей смотреть онлайн
    Cкачать фильм Интервью с убийцей бесплатно
    Интервью с убийцей скачать торрент в хорошем качестве
    Интервью с убийцей смотреть онлайн бесплатно в хорошем качестве


    Вы не можете начинать темы
    Вы не можете отвечать на сообщения
    Вы не можете редактировать свои сообщения
    Вы не можете удалять свои сообщения
    Вы не можете голосовать в опросах
    Вы не можете прикреплять файлы к сообщениям
    Вы можете скачивать файлы