1 сезон

1 сезон

iTunes

1

КиноПоиск HD

Кинопоиск HD

iTunes

13

1 сезон

RePack

30

Новинка

ВАЖНО

ИГРА 18+

pack

RePack

MK11
pack

Легкие деньги

RePack

jed

RePack

fifa19

RePack

RDR2

RePack

NEED FOR SPEED™ PAYBACK

4 сезон

9 сезон

Бесстыжие 9 сезон

Все сериалы

все сериалы на PB.wtf

RePack

FAR CRY 5
  
Magnet ссылка

Оптом дешевле 2 / Cheaper by the Dozen 2 (Адам Шэнкман / Adam Shankman) [2005 г., США, Комедия, HDRip] Dub pb.wtf

Оптом дешевле 2 через торрент pb.wtf

Размер: 744 MB | Добавлен: 7 лет 11 мес. назад | Торрент скачан:66 раз
Скачать  

18-05-2013 05:45 Оптом дешевле 2 Скачать торрент  

Оптом дешевле 2 / Cheaper by the Dozen 2
Год выпуска: 2005
Страна: США
Жанр: Комедия
Продолжительность: 01:33:54
Перевод: Профессиональный (полное дублирование)
Русские субтитры: нет

Режиссер: Адам Шэнкман / Adam Shankman

В ролях: Стив Мартин, Александер Конти, Блэйк Вудрафф, Бонни Хант, Джейкоб Смит, Джейми Кинг, Кармен Электра, Кевин Шмидт, Лилиана Мьюми, Морган Йорк, Пайпер Перабо, Том Уэллинг, Тэйлор Лотнер

Описание: Сиквел одноименной семейной комедии. Семейство Бейкеров, знакомое нам по первому фильму, планирует провести беззаботные летние каникулы на природе, однако на отдыхе они встречаются с другой, не менее крупной семейкой, детей в кадре, таким образом, становится в два раза больше! Между ними вспыхивает здоровое соперничество и конкуренция, сулящие им немало проблем.

Качество: HDRip
Формат: AVI
Видео кодек: XviD
Аудио кодек: MP3
Видео: 688x288 (2.39:1), 23.976 fps, XviD build 73 ~971 kbps avg, 0.20 bit/pixel
Аудио: 48 kHz, MPEG Layer 3, 2 ch, ~128.00 kbps avg
Раздача от:
D:Мои рипыCheaper.by.the.Dozen.2.2005.HDRip. 744 [YTN] by dexter lex.avi
General
Complete name : D:Мои рипыCheaper.by.the.Dozen.2.2005.HDRip. 744 [YTN] by dexter lex.avi
Format : AVI
Format/Info : Audio Video Interleave
File size : 744 MiB
Duration : 1h 33mn
Overall bit rate : 1 108 Kbps
Writing application : VirtualDubMod 1.5.10.3 | www.virtualdub-fr.org || (build 2550/release)
Writing library : VirtualDubMod build 2550/release
Video #0
ID : 0
Format : MPEG-4 Visual
Format profile : Advanced Simple@L5
Format settings, BVOP : 1
Format settings, QPel : No
Format settings, GMC : No warppoints
Format settings, Matrix : Custom
Codec ID : XVID
Codec ID/Hint : XviD
Duration : 1h 33mn
Bit rate : 971 Kbps
Width : 688 pixels
Height : 288 pixels
Display aspect ratio : 2.39:1
Frame rate : 23.976 fps
Color space : YUV
Chroma subsampling : 4:2:0
Bit depth : 8 bits
Scan type : Progressive
Compression mode : Lossy
Bits/(Pixel*Frame) : 0.204
Stream size : 652 MiB (88%)
Writing library : XviD 73
Audio #1
ID : 1
Format : MPEG Audio
Format version : Version 1
Format profile : Layer 3
Codec ID : 55
Codec ID/Hint : MP3
Duration : 1h 33mn
Bit rate mode : Constant
Bit rate : 128 Kbps
Channel(s) : 2 channels
Sampling rate : 48.0 KHz
Compression mode : Lossy
Stream size : 86.0 MiB (12%)
Alignment : Aligned on interleaves
Interleave, duration : 42 ms (1.00 video frame)
Interleave, preload duration : 504 ms
Writing library : LAME3.99r
Encoding settings : -m s -V 4 -q 2 -lowpass 17 -b 128
pb.wtf



Скачать Оптом дешевле 2 через торрент http://i45.fastpic.ru/big/2012/1030/80/f1c02594a270a2ac83f3b8c9607def80.jpg Скачать фильм Оптом дешевле 2 через торрент бесплантно в хорошем качестве Описание: Сиквел одноименной семейной комедии. Семейство Бейкеров, знакомое нам по первому фильму, планирует провести беззаботные летние ... 8.2 10 5
Info! Золотая раздача, скачанное не засчитывается.
Торрент: Зарегистрирован [2013-05-18 05:45] · скачан: 66 раз
Статус: √ проверено
Размер: 744 MB
Как cкачать? Как скачать Оптом дешевле 2 через торрент | UTorrent

% Раздел Тема Автор DL S | L
Фильмы [HD 720p, 1080p] (Хороший звук DUB, MVO) [ 8.06 GB ] Оптом дешевле 2 / Cheaper by the Dozen 2 [2005 BDRip 1080p ot msltel] DUB msltel Скачать
1 | 0
Фильмы 2001-2005 [ 2 GB ] Оптом дешевле 2 / Cheaper by the Dozen 2 [2005 BDRip AVC ot msltel] DUB msltel Скачать
1 | 0
Фильмы [HD 720p, 1080p] (Хороший звук DUB, MVO) [ 3.14 GB ] Оптом дешевле 2 / Cheaper by the Dozen 2 [2005 BDRip 720p ot msltel] DUB msltel Скачать
1 | 0
Фильмы 2001-2005 [ 1.46 GB ] Оптом дешевле 2 / Cheaper by the Dozen 2 [2005 HDRip] Dub dexter lex Скачать
1 | 0

28-11-2019 20:33  

Отключить всю рекламу на сайте

18-05-2013 06:07 Оптом дешевле 2 Скачать торрент  

американский комбинат тупых фильмов работает круглосуточноpb.wtf



    Дорогой пользователь! Огромная просьба, поблагодарите релизера, оцените раздачу и оставьте свои комментарий, если Вы скачали Оптом дешевле 2 через торрент бесплатно! Внесите свою лепту в развитие PiratBit!
    Комментировать посты могут только пользователи прошедшие не сложную регистрацию
    Показать сообщения:    

    Оптом дешевле 2 через торрент
    Скачать бесплатно Оптом дешевле 2
    Оптом дешевле 2 скачать торрент
    Оптом дешевле 2 смотреть онлайн
    Cкачать фильм Оптом дешевле 2 бесплатно
    Оптом дешевле 2 скачать торрент в хорошем качестве
    Оптом дешевле 2 смотреть онлайн бесплатно в хорошем качестве


    Вы не можете начинать темы
    Вы не можете отвечать на сообщения
    Вы не можете редактировать свои сообщения
    Вы не можете удалять свои сообщения
    Вы не можете голосовать в опросах
    Вы не можете прикреплять файлы к сообщениям
    Вы можете скачивать файлы