2 сезон

iTunes

1 сезон

1

iTunes

iTunes

iTunes

1 сезон

RePack

30

ИГРА 18+

pack

ВАЖНО

!!Акция!!

Alien_RageХит недели

RePack

MK11
pack

Забери бонус

RePack

jed

!!Акция!!

Alien_Rage

RePack

fifa19

RePack

Assassins Creed: Odyssey

RePack

NEED FOR SPEED™ PAYBACK

4 сезон

9 сезон

Бесстыжие 9 сезон

Все сериалы

все сериалы на PB.wtf

RePack

FAR CRY 5
  

Охотники на ведьм [Театральная версия] / Hansel & Gretel: Witch Hunters [Theatrical Cut] (Томми Виркола) [2013 г., ужасы, фэнтези, боевикслова, BDRip 720p, Дубляж, лицензия] pb.wtf

Охотники на ведьм через торрент pb.wtf

Размер: 4.8 GB | Добавлен: 7 лет 5 мес. назад | Торрент скачан:752 раза
Скачать  

18-05-2013 10:24 Охотники на ведьм Скачать торрент  



Охотники на ведьм [Театральная версия] / Hansel & Gretel: Witch Hunters [Theatrical Cut]

«Новый поворот старой истории»

Год выпуска: 2013
Страна: США Германия
Жанр: ужасы, фэнтези, боевик,
Продолжительность: 01:27:56
Перевод: Дубляж, Лицензия
Тип релиза: Лицензия
Субтитры: Есть

Режиссер: Томми Виркола
Продюссер: Уилл Феррелл, Бо Флинн, Крис Хенчи
Сценарий: Томми Виркола

Бюджет: $50 000 000
Премьера в мире: 19 января 2013



IMDB 6.20 (36 825)


В ролях: Джереми Реннер, Джемма Артертон, Фамке Янссен, Пихла Виитала, Дерек Мирс, Робин Аткин Даунс, Ингрид Болсай Бердал, Джоэнна Кулиг, Томас Манн, Петер Стормаре, Илья Исаев, Ирина Киреева, Ольга Плетнёва, Николай Быстров, Андрей Данилюк,

Описание: Едва не погибнув в лапах ужасной ведьмы, Гензель и Гретель стали только сильнее. Одержимые местью, они ведут отчаянную борьбу со злом, даже не подозревая, что их поджидает нечто куда более опасное... собственное прошлое...

Качество: BDRip 720p
Формат: MKV
Видео кодек: H.264
Аудио кодек: DTS/АС3
Видео: 1280x534 (2.35:1), 23.976 fps, 5 509 Kbps (0.336 bit/pixel)
Аудио#1: DTS, 48.0 KHz, 6 ch, 1 510 Kbps, CBR (Russian)
Аудио#2: AC-3, 48.0 KHz, 6 ch, 640 Kbps, CBR (English)
Субтитры: Russian, Romanian, English




General
Unique ID : 237445317299345231313701558342298966040 (0xB2A24DFF1FC068499097AF7022951818)
Complete name : F:Охотники на ведьм [Театральная версия].mkv
Format : Matroska
Format version : Version 2
File size : 4.80 GiB
Duration : 1h 27mn
Overall bit rate : 7 815 Kbps
Movie name : HDT
Encoded date : UTC 2013-05-17 16:50:23
Writing application : mkvmerge v5.8.0 ('No Sleep / Pillow') built on Sep 2 2012 15:37:04
Writing library : libebml v1.2.3 + libmatroska v1.3.0

Video
ID : 1
Format : AVC
Format/Info : Advanced Video Codec
Format profile : High@L4.1
Format settings, CABAC : Yes
Format settings, ReFrames : 12 frames
Codec ID : V_MPEG4/ISO/AVC
Duration : 1h 27mn
Bit rate : 5 510 Kbps
Width : 1 280 pixels
Height : 534 pixels
Display aspect ratio : 2.40:1
Frame rate mode : Constant
Frame rate : 23.976 fps
Color space : YUV
Chroma subsampling : 4:2:0
Bit depth : 8 bits
Scan type : Progressive
Bits/(Pixel*Frame) : 0.336
Stream size : 3.38 GiB (71%)
Title : Rip by IRONCLUB
Writing library : x264 core 132 r2309kMod 3b1f1f7
Encoding settings : cabac=1 / ref=12 / deblock=1:-3:-3 / analyse=0x3:0x113 / me=umh / subme=11 / psy=1 / fade_compensate=0.00 / psy_rd=1.05:0.00 / mixed_ref=1 / me_range=48 / chroma_me=1 / trellis=2 / 8x8dct=1 / cqm=0 / deadzone=21,11 / fast_pskip=0 / chroma_qp_offset=-2 / threads=12 / lookahead_threads=2 / sliced_threads=0 / nr=0 / decimate=1 / interlaced=0 / bluray_compat=0 / constrained_intra=0 / bframes=9 / b_pyramid=2 / b_adapt=2 / b_bias=0 / direct=3 / weightb=1 / open_gop=0 / weightp=2 / keyint=250 / keyint_min=23 / scenecut=40 / intra_refresh=0 / rc_lookahead=60 / rc=crf / mbtree=1 / crf=17.0000 / qcomp=0.80 / qpmin=0 / qpmax=69 / qpstep=4 / vbv_maxrate=50000 / vbv_bufsize=62500 / crf_max=0.0 / nal_hrd=none / ip_ratio=1.30 / aq=1:0.85
Language : English
Default : Yes
Forced : Yes
Matrix coefficients : BT.709

Audio #1
ID : 2
Format : DTS
Format/Info : Digital Theater Systems
Mode : 16
Format settings, Endianness : Big
Codec ID : A_DTS
Duration : 1h 27mn
Bit rate mode : Constant
Bit rate : 1 509 Kbps
Channel(s) : 6 channels
Channel positions : Front: L C R, Side: L R, LFE
Sampling rate : 48.0 KHz
Bit depth : 24 bits
Compression mode : Lossy
Stream size : 949 MiB (19%)
Title : DTS 5.1 @ 1510 - DUB
Language : Russian
Default : Yes
Forced : No

Audio #2
ID : 3
Format : AC-3
Format/Info : Audio Coding 3
Mode extension : CM (complete main)
Format settings, Endianness : Big
Codec ID : A_AC3
Duration : 1h 27mn
Bit rate mode : Constant
Bit rate : 640 Kbps
Channel(s) : 6 channels
Channel positions : Front: L C R, Side: L R, LFE
Sampling rate : 48.0 KHz
Bit depth : 16 bits
Compression mode : Lossy
Stream size : 403 MiB (8%)
Title : DD 5.1 @ 640 kbps
Language : English
Default : No
Forced : No

Text #1
ID : 4
Format : UTF-8
Codec ID : S_TEXT/UTF8
Codec ID/Info : UTF-8 Plain Text
Title : voronine
Language : Russian
Default : No
Forced : No

Text #2
ID : 5
Format : UTF-8
Codec ID : S_TEXT/UTF8
Codec ID/Info : UTF-8 Plain Text
Language : Romanian
Default : No
Forced : No

Text #3
ID : 6
Format : UTF-8
Codec ID : S_TEXT/UTF8
Codec ID/Info : UTF-8 Plain Text
Language : English
Default : No
Forced : No

Menu
00:00:00.000 : en:00:00:00.000
00:08:56.827 : en:00:08:56.827
00:15:57.790 : en:00:15:57.790
00:24:07.112 : en:00:24:07.112
00:32:17.936 : en:00:32:17.936
00:40:12.868 : en:00:40:12.868
00:46:45.636 : en:00:46:45.636
00:52:22.097 : en:00:52:22.097
01:00:20.033 : en:01:00:20.033
01:05:05.651 : en:01:05:05.651
01:12:49.656 : en:01:12:49.656
01:19:01.820 : en:01:19:01.820


Охотники на ведьм скачать торрент


pb.wtf



Скачать Охотники на ведьм через торрент http://pic.kartinco.top/images/2/v2tld7g3pc.png Скачать фильм Охотники на ведьм [Театральная версия] через торрент бесплантно в хорошем качестве Описание: Едва не погибнув в лапах ужасной ведьмы, Гензель и Гретель стали только сильнее. Одержимые местью, они ведут отчаянную борьбу со ... 9.7 10 26
Info! Золотая раздача, скачанное не засчитывается.
Торрент: Зарегистрирован [2013-05-18 10:24] · скачан: 752 раз
Статус: T временная
Размер: 4.8 GB
Как cкачать? Как скачать Охотники на ведьм через торрент | qTorrent

% Раздел Тема Автор DL S | L
Фильмы (HD 720p, 1080p) (48-60 fps) [ 4.96 GB ] Последний охотник на ведьм / The Last Witch Hunter [2015 BDRip 720p 60fps от еnvy / NNNB] DUB еnvy Скачать
10 | 0
T Фильмы 2019-2020 (Звук TS, Cam, VO, DVO) [ 1.46 GB ] Охотники на ведьм / Zlogonje / The Witch Hunters [2018 HDTVRip Любительский ] PsYcho Скачать
2 | 0
Ultra HD (UHD: 2K, 4K, 8K) — видео сверхвысокой чёткости [ 12.39 GB ] Охотники на ведьм / Hansel & Gretel: Witch Hunters [2012 UHD BDRip 2160p] - [] sheker187 Скачать
1 | 0
Ultra HD (UHD: 2K, 4K, 8K) — видео сверхвысокой чёткости [ 47.59 GB ] Охотники на ведьм / Hansel & Gretel: Witch Hunters [2012 UHD BDRemux 2160p] DUB [Dolby Vision TV] [] sheker187 Скачать
1 | 0
Ultra HD (UHD: 2K, 4K, 8K) — видео сверхвысокой чёткости [ 45.44 GB ] Охотники на ведьм / Hansel & Gretel: Witch Hunters [2012 UHD BDRemux 2160p] - [] sheker187 Скачать
1 | 0
Ultra HD (UHD: 2K, 4K, 8K) — видео сверхвысокой чёткости [ 61.64 GB ] Охотники на ведьм / Hansel and Gretel: Witch Hunters [2013 UHD Blu-Ray 2160p] [HDR] DUB [Театральная версия] bober100 Скачать
1 | 0
Ultra HD (UHD: 2K, 4K, 8K) — видео сверхвысокой чёткости [ 56.18 GB ] Последний охотник на ведьм / The Last Witch Hunter [2015 UHD BDRemux 2160p] DUB [] + AVO [Дольский] sheker187 Скачать
1 | 0

28-11-2019 20:33  

Отключить всю рекламу на сайте

18-05-2013 10:40 Охотники на ведьм Скачать торрент  

Ke$h@
Уверен что лицензия?pb.wtf



18-05-2013 10:42 Охотники на ведьм Скачать торрент  

1080 сегодня да?pb.wtf



18-05-2013 10:46 Охотники на ведьм Скачать торрент  

andrew72rus писал(а):

1080 сегодня да?

Он со вчерашнего дня уже есть.pb.wtf



18-05-2013 10:55 Охотники на ведьм Скачать торрент  

Vetаl писал(а):

andrew72rus писал(а):

1080 сегодня да?

Он со вчерашнего дня уже есть.

где это она есть интересно? есть,но 3Д! а пока только 720рpb.wtf



18-05-2013 10:59 Охотники на ведьм Скачать торрент  

Mozggg
Есть, я б выложил, да размер не маленький да и уже качаю 3д 8.96 GBpb.wtf



18-05-2013 11:07 Охотники на ведьм Скачать торрент  

Vetаl

уверен!!pb.wtf



18-05-2013 11:09 Охотники на ведьм Скачать торрент  

Vetаl писал(а):

Mozggg
Есть, я б выложил, да размер не маленький да и уже качаю 3д 8.96 GB

ну дай ссылочку тогда :) я не нашел :)pb.wtf



18-05-2013 11:18 Охотники на ведьм Скачать торрент  

Ke$h@
Ну обычно или двд имеется или блюрей.Я лично пока не видел в сети ни то ни другое.На первоисточнике не указанно что это лицензия и раздача не проверена pb.wtf



18-05-2013 11:54 Охотники на ведьм Скачать торрент  

Что ещё за театральная версия?pb.wtf



18-05-2013 12:21 Охотники на ведьм Скачать торрент  

1080 выложите пожалуйста!!pb.wtf



18-05-2013 12:31 Охотники на ведьм Скачать торрент  

сэмпл плизpb.wtf



18-05-2013 12:43 Охотники на ведьм Скачать торрент  

NOVONET
Театральная версия фильма - та версия, которая шла в кинотеатрах, с ней все предельно ясно. Т.е. та же длительность, дубляж и пр. Как правило, если нет отображения о принадлежности картины к какому либо варианту, то это и есть театралка. По сути, все что мы смотрели, в 98 % случаях и есть - театральная версия.pb.wtf



19-05-2013 10:45 Охотники на ведьм Скачать торрент  

Vetаl

Блюрик имеется!!!

Так что исправьте на проверено!!pb.wtf



19-05-2013 11:32 Охотники на ведьм Скачать торрент  

Ну так что, это лицуха или все же чистый звук? А то статус "временная" смущает, не хочется зря качать.pb.wtf



    Дорогой пользователь! Огромная просьба, поблагодарите релизера, оцените раздачу и оставьте свои комментарий, если Вы скачали Охотники на ведьм через торрент бесплатно! Внесите свою лепту в развитие PiratBit!
    Комментировать посты могут только пользователи прошедшие не сложную регистрацию
    Показать сообщения:    

    Охотники на ведьм через торрент
    Скачать бесплатно Охотники на ведьм
    Охотники на ведьм скачать торрент
    Охотники на ведьм смотреть онлайн
    Cкачать фильм Охотники на ведьм бесплатно
    Охотники на ведьм скачать торрент в хорошем качестве
    Охотники на ведьм смотреть онлайн бесплатно в хорошем качестве


    Вы не можете начинать темы
    Вы не можете отвечать на сообщения
    Вы не можете редактировать свои сообщения
    Вы не можете удалять свои сообщения
    Вы не можете голосовать в опросах
    Вы не можете прикреплять файлы к сообщениям
    Вы можете скачивать файлы