2 сезон

iTunes

MVO

1

2 сезон

iTunes

iTunes

1 сезон

RePack

30

Новинка

ВАЖНО

ИГРА 18+

pack

RePack

MK11
pack

Легкие деньги

RePack

jed

RePack

fifa19

RePack

RDR2

RePack

NEED FOR SPEED™ PAYBACK

4 сезон

9 сезон

Бесстыжие 9 сезон

Все сериалы

все сериалы на PB.wtf

RePack

FAR CRY 5

Anonymous, добрый вечер, мы не успеваем собрать деньги на оплату серверов за декабрь и январь, помогите нам пожалуйста в это трудное время. В качестве благодарности мы отключим Вам всю рекламу на сайте (укажите свой ник в строку Ваше имя)!

×
  
Magnet ссылка

Секс Агент (ролик №3) / Public Agent POV Public Sex With Real Girls - 4tube [2012 г., эротика, DVDRip] pb.wtf

Секс Агент через торрент pb.wtf

Размер: 65 MB | Добавлен: 7 лет 8 мес. назад | Торрент скачан:306 раз
Скачать  

18-05-2013 12:59 Секс Агент Скачать торрент  

Секс Агент (ролик №3) / Public Agent POV
Public Sex With Real Girls - 4tube.com

Год выпуска: 2012
Студия:4tube.com/publickagent.com
Продолжительность: 14 мин




Качество: DVDRip
Формат: MP4
Видео кодек: AVC
Аудио кодек: AAC
Видео: 696 Кбит/сек 512 х 360 пикселей 25,000 кадров/сек
Аудио#1: 64,0 Кбит/сек 2 канала 48,0 КГц




скриншот   скриншот   скриншот   скриншот   скриншот   скриншот  

Общее
Полное имя : D:MusorPiraTbit.NeTbyblackmexxPublicAgent3Public Agent POV Public Sex With Real Girls - 4tube.MP4
Формат : MPEG-4
Профиль формата : Base Media
Идентификатор кодека : isom
Размер файла : 65,1 Мбайт
Продолжительность : 11 м.
Режим общего битрейта : Переменный
Общий поток : 762 Кбит/сек
Дата кодирования : UTC 2012-12-06 13:36:15
Дата пометки : UTC 2012-12-06 13:36:15

Видео
Идентификатор : 1
Формат : AVC
Формат/Информация : Advanced Video Codec
Профиль формата : Main@L3.1
Параметр CABAC формата : Да
Параметр ReFrames формата : 8 кадров
Параметр GOP формата : M=1, N=2
Идентификатор кодека : avc1
Идентификатор кодека/Информация : Advanced Video Coding
Продолжительность : 11 м.
Битрейт : 696 Кбит/сек
Максимальный битрейт : 8388 Кбит/сек
Ширина : 512 пикселей
Высота : 360 пикселей
Соотношение сторон : 1,422
Режим частоты кадров : Постоянный
Частота кадров : 25,000 кадров/сек
Цветовое пространство : YUV
Субдискретизация насыщенности : 4:2:0
Битовая глубина : 8 бит
Тип развёртки : Прогрессивная
Бит/(Пиксели*Кадры) : 0.151
Размер потока : 59,4 Мбайт (91%)
Библиотека кодирования : Zencoder Video Encoding System
Дата кодирования : UTC 2012-12-06 13:33:15
Дата пометки : UTC 2012-12-06 13:36:15

Аудио
Идентификатор : 2
Формат : AAC
Формат/Информация : Advanced Audio Codec
Профиль формата : LC
Идентификатор кодека : 40
Продолжительность : 11 м.
Вид битрейта : Переменный
Битрейт : 64,0 Кбит/сек
Максимальный битрейт : 69,7 Кбит/сек
Каналы : 2 канала
Расположение каналов : Front: L R
Частота : 48,0 КГц
Метод сжатия : С потерями
Размер потока : 5,47 Мбайт (8%)
Дата кодирования : UTC 2012-12-06 13:36:15
Дата пометки : UTC 2012-12-06 13:36:15

pb.wtf



pack Скачать Секс Агент через торрент http://pic.kartinco.top/images/2/wnfmooiusm.jpg Скачать фильм Секс Агент через торрент бесплантно в хорошем качестве Год выпуска: 2012Студия:4tube.com/publickagent.comПродолжительность: 14 ... 9.7 10 7
Info! Золотая раздача, скачанное не засчитывается.
Торрент: Зарегистрирован [2013-05-18 12:59] · скачан: 306 раз
Статус: √ проверено
Размер: 65 MB
Как cкачать? Как скачать Секс Агент через торрент | UTorrent

28-11-2019 20:33  

Отключить всю рекламу на сайте

    Дорогой пользователь! Огромная просьба, поблагодарите релизера, оцените раздачу и оставьте свои комментарий, если Вы скачали Секс Агент через торрент бесплатно! Внесите свою лепту в развитие PiratBit!
    Комментировать посты могут только пользователи прошедшие не сложную регистрацию
    Показать сообщения:    

    Секс Агент через торрент
    Скачать бесплатно Секс Агент
    Секс Агент скачать торрент
    Секс Агент смотреть онлайн
    Cкачать фильм Секс Агент бесплатно
    Секс Агент скачать торрент в хорошем качестве
    Секс Агент смотреть онлайн бесплатно в хорошем качестве


    Вы не можете начинать темы
    Вы не можете отвечать на сообщения
    Вы не можете редактировать свои сообщения
    Вы не можете удалять свои сообщения
    Вы не можете голосовать в опросах
    Вы не можете прикреплять файлы к сообщениям
    Вы можете скачивать файлы