Ссылка на приватное зеркало всего за 1$. Внимание количество ограничено!!!

iTunes

1+1

iTunes

мы

WEB-DL

1

iTunes

Чернобыль

iTunes

Ральф против интернета

Лицензия

ПШазам

Лицензия

Оно 2

Лицензия

30
pack

Вам бонус

ВАЖНО

!!Акция!!

Alien_RageХит недели

RePack

Resident Evil 21

ИГРА 18+

pack

RePack

jed

!!Акция!!

Alien_Rage

RePack

fifa19

RePack

Assassins Creed: Odyssey

RePack

NEED FOR SPEED™ PAYBACK

3 сезон

9 сезон

Бесстыжие 9 сезон

Все сериалы

все сериалы на PB.wtf

RePack

FAR CRY 5
Ребята, катастрофически не хватает 1900р. для оплаты серверов за Октябрь (всвязи с блокировками трафик упал в 3 раза), 1-2р., выручайте.
  

Эпоха алчности / Bailout: The Age of Greed (Уве Болл / Uwe Boll) [ 2013 , триллер, драмаслова , WEB-DLRip] VO [den904] pb.wtf

Эпоха алчности через торрент pb.wtf

Размер: 1.46 GB | Добавлен: 6 лет 6 мес. назад | Торрент скачан:346 раз
Скачать  

18-05-2013 18:23 Эпоха алчности Скачать торрент  

Эпоха алчности / Bailout: The Age of Greed


  • Год выпуска:2013
  • Страна: Канада
  • Жанр:триллер, драма
  • Продолжительность: 01:38:52
  • Перевод:Любительский (одноголосый)[den904]
    • Режиссер: Уве Болл / Uwe Boll
    • Продюсер: Дэн Кларк / Dan Clarke, Шон Уильямсон / Shawn Williamson, Джонатан Шор / Jonathan Shore, Эри Тауб / Ari Taub
    • В ролях:Доминик Пёрселл (Jim), Эрин Карплак (Rosie), Эдвард Ферлонг, Джон Хёрд (Jeremy Stancroft), Кит Дэвид (Freddy), Майкл Паре (Frank), Локлин Манро (Robert), Тайрон Лейтсо (Spalding Smith), Майк Допуд (Tom Allgard), Барклай Хоуп (Ian Marwood), Хезер Вини (Mary Jean), Эрик Робертс
      • Описание:
        Это история обычного, среднестатистического жителя Нью-Йорка, с хорошей работой и счастливой семьей. После того, как наступает экономический кризис, он лишается работы и будучи в отчаянии он берет оружие и отправляется мстить за свою испорченную жизнь.

    • Рейтинг http://www.imdb.com/title/tt2368553/
      • Качество: WEB-DLRip
      • Формат: AVI
      • Видео кодек: XviD
      • Аудио кодек: AC3
      • Видео: XviD; 720x400 (16:9); 1718 Kbps; 23,976 fps;
      • Аудио: AC3; 384 Kbps; CBR; 6 ch; 16 bit, 48 kHz

      Общее
      Полное имя : D:ТорентыAssault.on.Wall.Street.2013.WEBDLRip..1400Mb.avi
      Формат : AVI
      Формат/Информация : Audio Video Interleave
      Размер файла : 1,46 Гбайт
      Продолжительность : 1 ч. 38 м.
      Общий поток : 2111 Кбит/сек
      Программа кодирования : VirtualDubMod 1.5.10.2 (build 2540/release)
      Библиотека кодирования : VirtualDubMod build 2540/release

      Видео
      Идентификатор : 0
      Формат : MPEG-4 Visual
      Профиль формата : Advanced Simple@L5
      Параметр BVOP формата : 2
      Параметр QPel формата : Нет
      Параметр GMC формата : Без точки перехода
      Параметр матрицы формата : Default (H.263)
      Идентификатор кодека : XVID
      Идентификатор кодека/Подсказка : XviD
      Продолжительность : 1 ч. 38 м.
      Битрейт : 1718 Кбит/сек
      Ширина : 720 пикселей
      Высота : 400 пикселей
      Соотношение сторон : 16:9
      Частота кадров : 23,976 кадра/сек
      Цветовое пространство : YUV
      Субдискретизация насыщенности : 4:2:0
      Битовая глубина : 8 бит
      Тип развёртки : Прогрессивная
      Метод сжатия : С потерями
      Бит/(Пиксели*Кадры) : 0.249
      Размер потока : 1,19 Гбайт (81%)
      Библиотека кодирования : XviD 1.2.1 (UTC 2008-12-04)

      Аудио
      Идентификатор : 1
      Формат : AC-3
      Формат/Информация : Audio Coding 3
      Расширение режима : CM (complete main)
      Параметр Endianness формата : Big
      Идентификатор кодека : 2000
      Продолжительность : 1 ч. 38 м.
      Вид битрейта : Постоянный
      Битрейт : 384 Кбит/сек
      Каналы : 6 каналов
      Расположение каналов : Front: L C R, Side: L R, LFE
      Частота : 48,0 КГц
      Битовая глубина : 16 бит
      Метод сжатия : С потерями
      Размер потока : 272 Мбайт (18%)
      Выравнивание : Разделение по промежуткам
      Продолжительность промежутка : 42 мс. (1,00 видеокадр)
      Время предзагрузки промежутка : 500 мс.
      Продюсер: Дэн Кларк / Dan Clarke, Шон Уильямсон / Shawn Williamson, Джонатан Шор / Jonathan Shore, Эри Тауб / Ari Taub
      Композитор: Джессика Де Руйи / Jessica de Rooij

      Мировая премьера: 10 мая 2013


      Скриншоты
      © Оформление by Vetalpb.wtf



  • Скачать Эпоха алчности через торрент http://i47.fastpic.ru/big/2013/0505/55/ff0fbc48f98fa52c0fc275351a996d55.png Скачать фильм Эпоха алчности через торрент бесплантно в хорошем качестве Описание:Это история обычного, среднестатистического жителя Нью-Йорка, с хорошей работой и счастливой семьей. После того, как наступает ... 9.9 10 16
    Info! Золотая раздача, скачанное не засчитывается.
    Торрент: Зарегистрирован [2013-05-18 18:23] · скачан: 346 раз
    Статус: √ проверено
    Размер: 1.46 GB
    Как cкачать? Как скачать Эпоха алчности через торрент | qTorrent

    % Раздел Тема Автор DL S | L
    Фильмы 2013 (Звук TS, Cam, VO, DVO) [ 1.37 GB ] Эпоха алчности / Bailout: The Age of Greed [2013 HDRip VO] coc900 Скачать
    1 | 0
    Фильмы 2013 (Звук TS, Cam, VO, DVO) [ 2.19 GB ] Эпоха алчности / Bailout: The Age of Greed [2013 BDRip-AVC VO] МАКС1 Скачать
    1 | 0


    Последний раз редактировалось: Ворон (2013-05-18 18:31), всего редактировалось 2 раз(а)

    28-11-2019 20:33  

    Отключить всю рекламу на сайте

    18-05-2013 18:24 Эпоха алчности Скачать торрент  

    Vetаl писал(а):

    Режиссер: Уве Болл

    Гений возвращается pb.wtf



    18-05-2013 18:27 Эпоха алчности Скачать торрент  

    Худший режиссёр всех времён и народовpb.wtf



    18-05-2013 18:32 Эпоха алчности Скачать торрент  

    Странно рейтинг у фильма imdb Ratings: 6,0/10 from 1 066 userspb.wtf



    18-05-2013 18:47 Эпоха алчности Скачать торрент  

    Судя по описанию это ремейк фильма "Меня все достало"))) Все лучшее кино сняли французы, остальные фильмы содраны с них)))pb.wtf



    19-05-2013 00:20 Эпоха алчности Скачать торрент  

    когда их всех повесят уже....достали критины..pb.wtf



    19-05-2013 01:22 Эпоха алчности Скачать торрент  

    MasterMax писал(а):

    Судя по описанию это ремейк фильма "Меня все достало"))) Все лучшее кино сняли французы, остальные фильмы содраны с них)))

    Вообщето фильм "С меня хватит" Режиссер: Джоэл Шумахер. Актеры: Майкл Дуглас, Роберт Дювалл, Барбара Херши при чём тут французы? pb.wtf



    24-06-2013 17:30 Эпоха алчности Скачать торрент  

    ну да тут репы одних янок хотя конада привздедилась почемуто
    :mega_shok:pb.wtf



      Дорогой пользователь! Огромная просьба, поблагодарите релизера, оцените раздачу и оставьте свои комментарий, если Вы скачали Эпоха алчности через торрент бесплатно! Внесите свою лепту в развитие PiratBit!
      Комментировать посты могут только пользователи прошедшие не сложную регистрацию
      Показать сообщения:    

      Эпоха алчности через торрент
      Скачать бесплатно Эпоха алчности
      Эпоха алчности скачать торрент
      Эпоха алчности смотреть онлайн
      Cкачать фильм Эпоха алчности бесплатно
      Эпоха алчности скачать торрент в хорошем качестве
      Эпоха алчности смотреть онлайн бесплатно в хорошем качестве


      Вы не можете начинать темы
      Вы не можете отвечать на сообщения
      Вы не можете редактировать свои сообщения
      Вы не можете удалять свои сообщения
      Вы не можете голосовать в опросах
      Вы не можете прикреплять файлы к сообщениям
      Вы можете скачивать файлы