Ссылка на приватное зеркало всего за 1$. Внимание количество ограничено!!!

iTunes

1+1

iTunes

мы

WEB-DL

1

iTunes

Чернобыль

iTunes

Ральф против интернета

Лицензия

ПШазам

Лицензия

Оно 2

Лицензия

30
pack

Вам бонус

ВАЖНО

!!Акция!!

Alien_RageХит недели

RePack

Resident Evil 21

ИГРА 18+

pack

RePack

jed

!!Акция!!

Alien_Rage

RePack

fifa19

RePack

Assassins Creed: Odyssey

RePack

NEED FOR SPEED™ PAYBACK

3 сезон

9 сезон

Бесстыжие 9 сезон

Все сериалы

все сериалы на PB.wtf

RePack

FAR CRY 5
Ребята, катастрофически не хватает 1900р. для оплаты серверов за Октябрь (всвязи с блокировками трафик упал в 3 раза), 1-2р., выручайте.
  

Открытая дорога / Open Road (Марсиу Гарсия / Márcio Garcia) [ 2013 , боевик, триллер, драма , HDRip] VO [den904] pb.wtf

Открытая дорога через торрент pb.wtf

Размер: 1.37 GB | Добавлен: 6 лет 6 мес. назад | Торрент скачан:232 раза
Скачать  

19-05-2013 09:28 Открытая дорога Скачать торрент  

Открытая дорога / Open Road


  • Год выпуска:2013
  • Страна: Бразилия, США
  • Жанр:боевик, триллер, драма
  • Продолжительность: 01:25:16
  • Перевод:Любительский (одноголосый)[den904]
    • Режиссер: Марсиу Гарсия / Márcio Garcia
    • Продюсер: Джулия Камара / Julia Camara, Таль Вигдерсон / Tal Vigderson, Марсиу Гарсия / Márcio Garcia, Джо Лоренцо / Joe Lorenzo, Ури Сингер / Uri Singer
    • Сценарий:Джулия Камара / Julia Camara

  • В ролях:Джульетт Льюис (Jill), Камилла Белль (Angie), Колин Эглсфилд (David), Энди Гарсиа (Chuck), Джон Сэвэдж (Carl), Ингрид Роджерс (Georgia), Теа Эмили Нельсон (Waitress), Крэйг Геллис (Ronny), Майкл Кинг (Highway Patrol Officer), Кристи Клэйнос (Louise), Майкл Карделль (Nick), Кристиане Торлони (Gloria)
    • Описание:
      Молодая бразильская художница Анжи (Камилла Бель), пытаясь расстаться со свой прежней жизнью, отправляется в путешествие по стране. Убегая от своего прошлого в поисках смысла жизни, Анжи находит не только себя, но и любовь в ее многочисленных формах...

  • Рейтинг
    imdb.com: 5.30 (54)
    • Качество: HDRip
    • Формат: AVI
    • Видео кодек: XviD
    • Аудио кодек: AC3
    • Видео: XviD; 720x304 (2.35:1); 1837 Kbps; 23,976 fps; 0,350 bpp
    • Аудио: AC3; 448 Kbps; CBR; 6 ch; 16 bit, 48 kHz

    Общее
    Полное имя : D:ТорентыOpen.road.2013.L1.HDRip.1400Mb.avi.avi
    Формат : AVI
    Формат/Информация : Audio Video Interleave
    Размер файла : 1,37 Гбайт
    Продолжительность : 1 ч. 25 м.
    Общий поток : 2295 Кбит/сек
    Программа кодирования : VirtualDubMod 1.5.10.2 (build 2540/release)
    Библиотека кодирования : VirtualDubMod build 2540/release

    Видео
    Идентификатор : 0
    Формат : MPEG-4 Visual
    Профиль формата : Advanced Simple@L5
    Параметр BVOP формата : 2
    Параметр QPel формата : Нет
    Параметр GMC формата : Без точки перехода
    Параметр матрицы формата : Default (H.263)
    Идентификатор кодека : XVID
    Идентификатор кодека/Подсказка : XviD
    Продолжительность : 1 ч. 25 м.
    Битрейт : 1838 Кбит/сек
    Ширина : 720 пикселей
    Высота : 304 пикселя
    Соотношение сторон : 2,35:1
    Частота кадров : 23,976 кадра/сек
    Цветовое пространство : YUV
    Субдискретизация насыщенности : 4:2:0
    Битовая глубина : 8 бит
    Тип развёртки : Прогрессивная
    Метод сжатия : С потерями
    Бит/(Пиксели*Кадры) : 0.350
    Размер потока : 1,09 Гбайт (80%)
    Библиотека кодирования : XviD 1.2.1 (UTC 2008-12-04)

    Аудио
    Идентификатор : 1
    Формат : AC-3
    Формат/Информация : Audio Coding 3
    Расширение режима : CM (complete main)
    Параметр Endianness формата : Big
    Идентификатор кодека : 2000
    Продолжительность : 1 ч. 25 м.
    Вид битрейта : Постоянный
    Битрейт : 448 Кбит/сек
    Каналы : 6 каналов
    Расположение каналов : Front: L C R, Side: L R, LFE
    Частота : 48,0 КГц
    Битовая глубина : 16 бит
    Метод сжатия : С потерями
    Размер потока : 273 Мбайт (20%)
    Выравнивание : Разделение по промежуткам
    Продолжительность промежутка : 42 мс. (1,00 видеокадр)
    Время предзагрузки промежутка : 500 мс.
    Сценарий: Джулия Камара / Julia Camara
    Продюсер: Джулия Камара / Julia Camara, Таль Вигдерсон / Tal Vigderson, Марсиу Гарсия / Márcio Garcia, Джо Лоренцо / Joe Lorenzo, Ури Сингер / Uri Singer
    Оператор: Джонатан Холл / Jonathan Hall

    Бюджет: $3 000 000

    Мировая премьера: 12 апреля 2013


    Скриншоты
    © Оформление by Vetalpb.wtf



  • Скачать Открытая дорога через торрент http://i47.fastpic.ru/big/2013/0505/55/ff0fbc48f98fa52c0fc275351a996d55.png Скачать фильм Открытая дорога через торрент бесплантно в хорошем качестве Описание:Молодая бразильская художница Анжи (Камилла Бель), пытаясь расстаться со свой прежней жизнью, отправляется в путешествие по ... 9.4 10 8
    Info! Золотая раздача, скачанное не засчитывается.
    Торрент: Зарегистрирован [2013-05-19 09:28] · скачан: 232 раз
    Статус: √ проверено
    Размер: 1.37 GB
    Как cкачать? Как скачать Открытая дорога через торрент | qTorrent

    % Раздел Тема Автор DL S | L
    Фильмы 2009 [ 1.37 GB ] Открытая дорога назад / The Open Road [2009 HDRip MVO лицензия] кэп Скачать
    1 | 0
    Фильмы 2009 [ 1.37 GB ] Открытая дорога назад / Open Road The [2009 HDRip] [ лицензия ] Anonymous Скачать
    1 | 0
    Фильмы 2009 [ 729 MB ] Открытая дорога / The Open Road [2009 DVDRip] SD Скачать
    1 | 0

    28-11-2019 20:33  

    Отключить всю рекламу на сайте

    19-05-2013 11:04 Открытая дорога Скачать торрент  

    Куда бежит фк клуб хз))pb.wtf



      Дорогой пользователь! Огромная просьба, поблагодарите релизера, оцените раздачу и оставьте свои комментарий, если Вы скачали Открытая дорога через торрент бесплатно! Внесите свою лепту в развитие PiratBit!
      Комментировать посты могут только пользователи прошедшие не сложную регистрацию
      Показать сообщения:    

      Открытая дорога через торрент
      Скачать бесплатно Открытая дорога
      Открытая дорога скачать торрент
      Открытая дорога смотреть онлайн
      Cкачать фильм Открытая дорога бесплатно
      Открытая дорога скачать торрент в хорошем качестве
      Открытая дорога смотреть онлайн бесплатно в хорошем качестве


      Вы не можете начинать темы
      Вы не можете отвечать на сообщения
      Вы не можете редактировать свои сообщения
      Вы не можете удалять свои сообщения
      Вы не можете голосовать в опросах
      Вы не можете прикреплять файлы к сообщениям
      Вы можете скачивать файлы