новый адрес
Ссылка на приватное зеркало всего за 1$. Внимание количество ограничено!!!

iTunes

1+1

iTunes

мы

WEB-DL

1

iTunes

Чернобыль

iTunes

Ральф против интернета

Лицензия

ПШазам

Лицензия

Оно 2

Лицензия

30
pack

Вам бонус

ВАЖНО

!!Акция!!

Alien_RageХит недели

RePack

Resident Evil 21

ИГРА 18+

pack

RePack

jed

!!Акция!!

Alien_Rage

RePack

fifa19

RePack

Assassins Creed: Odyssey

RePack

NEED FOR SPEED™ PAYBACK

3 сезон

9 сезон

Бесстыжие 9 сезон

Все сериалы

все сериалы на PB.wtf

RePack

FAR CRY 5
Ребята, катастрофически не хватает 1900р. для оплаты серверов за Октябрь (всвязи с блокировками трафик упал в 3 раза), 1-2р., выручайте.
  

Темные круги / Dark Circles (Пол Сотер / Paul Soter) [ 2013 , ужасы , DVDRip] VO [den904] pb.wtf

Темные круги через торрент pb.wtf

Размер: 1.37 GB | Добавлен: 6 лет 6 мес. назад | Торрент скачан:404 раза
Скачать  

19-05-2013 19:04 Темные круги Скачать торрент  

Темные круги / Dark Circles


  • Год выпуска:2013
  • Страна: США
  • Жанр:ужасы
  • Продолжительность: 01:26:36
  • Перевод:Любительский (одноголосый)[den904], перевод [Janetta], работа со звуком [spee2k]
    • Режиссер: Пол Сотер / Paul Soter
    • Продюсер: Алан Амиел / Alan Amiel, Бобби Рангелов / Bobby Ranghelov, Кортни Соломон / Courtney Solomon, Ник Турлоу / Nick Thurlow, Грегори М. Уолкер / Gregory M. Walker
    • Сценарий:Пол Сотер / Paul Soter

  • В ролях:Джонатон Шек (Alex), Андреа Франкл (Johanna), Пелл Джеймс (Penny), Глен Уорнер (Bar Patron), Филипп Бреннинкмейер (Michael), Эндрю Серпас (Construction Worker), Энтони Майкл Фредерик (Mover), Дженнифер Формен (Nancy), Сюзанн Северио (Nurse), Бретт Бьюбэй (EMT), Деррик Фриман (Frontman), Майкл Патрик Роджерс (Construction Worker)
    • Описание:
      Молодые родители переезжают из шумного города в сельскую местность. Но на новом месте их не ждал покой. Новые хозяева дома начинают видеть ужасные видения, вызванные их ребенком. Похоже домом владеют темные сверхъестественные силы, которые пробудились от долгой спячки...

  • Рейтинг http://www.kinopoisk.ru/film/585498/
    MPAA: R - Лицам до 17 лет обязательно присутствие взрослого
    • Качество: DVDRip
    • Формат: AVI
    • Видео кодек: XviD
    • Аудио кодек: AC3
    • Видео: XviD; 720x304 (2.35:1); 1801 Kbps; 23,976 fps; 0,343 bpp
    • Аудио: AC3; 448 Kbps; CBR; 6 ch; 16 bit, 48 kHz

    General
    Complete name : D:ТорентыDark.Circles.2013.DVDRip.1400Mb.avi
    Format : AVI
    Format/Info : Audio Video Interleave
    File size : 1.37 GiB
    Duration : 1h 26mn
    Overall bit rate : 2 259 Kbps
    Writing application : VirtualDubMod 1.5.10.2 (build 2540/release)
    Writing library : VirtualDubMod build 2540/release

    Video
    ID : 0
    Format : MPEG-4 Visual
    Format profile : Advanced Simple@L5
    Format settings, BVOP : 2
    Format settings, QPel : No
    Format settings, GMC : No warppoints
    Format settings, Matrix : Default (H.263)
    Codec ID : XVID
    Codec ID/Hint : XviD
    Duration : 1h 26mn
    Bit rate : 1 801 Kbps
    Width : 720 pixels
    Height : 304 pixels
    Display aspect ratio : 2.35:1
    Frame rate : 23.976 fps
    Color space : YUV
    Chroma subsampling : 4:2:0
    Bit depth : 8 bits
    Scan type : Progressive
    Compression mode : Lossy
    Bits/(Pixel*Frame) : 0.343
    Stream size : 1.09 GiB (80%)
    Writing library : XviD 1.2.1 (UTC 2008-12-04)

    Audio
    ID : 1
    Format : AC-3
    Format/Info : Audio Coding 3
    Mode extension : CM (complete main)
    Codec ID : 2000
    Duration : 1h 26mn
    Bit rate mode : Constant
    Bit rate : 448 Kbps
    Channel(s) : 6 channels
    Channel positions : Front: L C R, Side: L R, LFE
    Sampling rate : 48.0 KHz
    Bit depth : 16 bits
    Compression mode : Lossy
    Stream size : 278 MiB (20%)
    Alignment : Split accross interleaves
    Interleave, duration : 42 ms (1.00 video frame)
    Interleave, preload duration : 500 ms
    Сценарий: Пол Сотер / Paul Soter
    Продюсер: Алан Амиел / Alan Amiel, Бобби Рангелов / Bobby Ranghelov, Кортни Соломон / Courtney Solomon, Ник Турлоу / Nick Thurlow, Грегори М. Уолкер / Gregory M. Walker
    Оператор: Браун Купер / Brown Cooper, Ярон Леви / Yaron Levy
    Композитор: Бобби Тахури / Bobby Tahouri


    Скриншоты
    © Оформление by Vetalpb.wtf



  • Скачать Темные круги через торрент http://i47.fastpic.ru/big/2013/0505/55/ff0fbc48f98fa52c0fc275351a996d55.png Скачать фильм Темные круги через торрент бесплантно в хорошем качестве Описание:Молодые родители переезжают из шумного города в сельскую местность. Но на новом месте их не ждал покой. Новые хозяева дома ... 9.3 10 24
    Info! Золотая раздача, скачанное не засчитывается.
    Торрент: Зарегистрирован [2013-05-19 19:04] · скачан: 404 раз
    Статус: √ проверено
    Размер: 1.37 GB
    Как cкачать? Как скачать Темные круги через торрент | qTorrent

    28-11-2019 20:33  

    Отключить всю рекламу на сайте

    19-05-2013 22:35 Темные круги Скачать торрент  

    полное разочерование))))pb.wtf



    28-05-2013 19:04 Темные круги Скачать торрент  

    значить качать не стоитpb.wtf



      Дорогой пользователь! Огромная просьба, поблагодарите релизера, оцените раздачу и оставьте свои комментарий, если Вы скачали Темные круги через торрент бесплатно! Внесите свою лепту в развитие PiratBit!
      Комментировать посты могут только пользователи прошедшие не сложную регистрацию
      Показать сообщения:    

      Темные круги через торрент
      Скачать бесплатно Темные круги
      Темные круги скачать торрент
      Темные круги смотреть онлайн
      Cкачать фильм Темные круги бесплатно
      Темные круги скачать торрент в хорошем качестве
      Темные круги смотреть онлайн бесплатно в хорошем качестве


      Вы не можете начинать темы
      Вы не можете отвечать на сообщения
      Вы не можете редактировать свои сообщения
      Вы не можете удалять свои сообщения
      Вы не можете голосовать в опросах
      Вы не можете прикреплять файлы к сообщениям
      Вы можете скачивать файлы