новый адрес
Ссылка на приватное зеркало всего за 1$. Внимание количество ограничено!!!

iTunes

1+1

iTunes

мы

WEB-DL

1

iTunes

Чернобыль

iTunes

Ральф против интернета

Лицензия

ПШазам

Лицензия

Оно 2

Лицензия

30
pack

Вам бонус

ВАЖНО

!!Акция!!

Alien_RageХит недели

RePack

Resident Evil 21

ИГРА 18+

pack

RePack

jed

!!Акция!!

Alien_Rage

RePack

fifa19

RePack

Assassins Creed: Odyssey

RePack

NEED FOR SPEED™ PAYBACK

3 сезон

9 сезон

Бесстыжие 9 сезон

Все сериалы

все сериалы на PB.wtf

RePack

FAR CRY 5
Ребята, катастрофически не хватает 1900р. для оплаты серверов за Октябрь (всвязи с блокировками трафик упал в 3 раза), 1-2р., выручайте.
  

Дом, милый дом / Home Sweet Home (Девид Морлет) [2013 г., ужасы, триллер, WEB-DLRip, VO] [Zelesk] pb.wtf

Дом, милый дом через торрент pb.wtf

Размер: 1.45 GB | Добавлен: 6 лет 6 мес. назад | Торрент скачан:289 раз
Скачать  

20-05-2013 14:44 Дом, милый дом Скачать торрент  

Дом, милый дом / Home Sweet Home


  • Год выпуска:2013
  • Страна: Канада, Франция
  • Жанр:ужасы, триллер
  • Продолжительность: 01:21:34
  • Перевод:Любительский (одноголосый)[Zelesk]
    • Режиссер: Давид Морли / David Morlet
    • Продюсер: Джордан Баркер / Jordan Barker, Borga Dorter, Давид Морли / David Morlet, Douchka Papierski, Аллан Фанг / Allan Fung
    • Сценарий:Давид Морли / David Morlet

  • В ролях:Марти Адамс (Security Guard), Меган Хэфферн (Sara), Адам МакДональд (Frank), Шон Бенсон (The Killer)
    • Описание:
      Фрэнк и Сара недавно переехали в провинцию, чтобы воспитать своего годовалого сына Адама подальше от хаоса и загрязнений большого города. В глубине души Сара опасается жить вдали от цивилизации, и её страх усиливается, когда однажды утром она замечает во дворе их дома постороннего человека. Фрэнк уверяет её, что все в порядке, но Сара всё равно оставляет сообщение в офис шерифа.
      Тем же вечером они оставляют Адама с родителями Сары в городе, чтобы позволить себе побыть друг с другом наедине. Они и не догадываются, что злоумышленник уже проник в их дом и превратил его в ловушку, замуровав окна и отключив систему обеспечения безопасности.
      И вот, когда они возвращаются домой, романтический вечер постепенно сходит на нет, уступая место живому кошмару. Начинается финальная игра в кошки-мышки.

  • Рейтинг
    imdb.com: 4.70 (11)
    • Качество: WEB-DLRip
    • Формат: AVI
    • Видео кодек: XviD
    • Аудио кодек: MP3
    • Видео: XviD; 720x304 (2.35:1); 2284 Kbps; 23,976 fps; 0,435 bpp
    • Аудио: MP3 ; 256 Kbps; CBR; 2 ch, 44 kHz

    General
    Complete name : D:ТорентыДом, милый дом (2013) WEB-DLRip.avi
    Format : AVI
    Format/Info : Audio Video Interleave
    File size : 1.45 GiB
    Duration : 1h 21mn
    Overall bit rate : 2 550 Kbps
    Writing library : VirtualDub build 32507/release

    Video
    ID : 0
    Format : MPEG-4 Visual
    Format profile : Advanced Simple@L5
    Format settings, BVOP : 2
    Format settings, QPel : No
    Format settings, GMC : No warppoints
    Format settings, Matrix : Default (H.263)
    Codec ID : XVID
    Codec ID/Hint : XviD
    Duration : 1h 21mn
    Bit rate : 2 285 Kbps
    Width : 720 pixels
    Height : 304 pixels
    Display aspect ratio : 2.35:1
    Frame rate : 23.976 fps
    Color space : YUV
    Chroma subsampling : 4:2:0
    Bit depth : 8 bits
    Scan type : Progressive
    Compression mode : Lossy
    Bits/(Pixel*Frame) : 0.435
    Stream size : 1.30 GiB (90%)
    Writing library : XviD 64

    Audio
    ID : 1
    Format : MPEG Audio
    Format version : Version 1
    Format profile : Layer 3
    Mode : Joint stereo
    Codec ID : 55
    Codec ID/Hint : MP3
    Duration : 1h 21mn
    Bit rate mode : Constant
    Bit rate : 256 Kbps
    Channel(s) : 2 channels
    Sampling rate : 44.1 KHz
    Compression mode : Lossy
    Stream size : 149 MiB (10%)
    Alignment : Split accross interleaves
    Interleave, duration : 42 ms (1.00 video frame)
    Interleave, preload duration : 500 ms
    Сценарий: Давид Морли / David Morlet
    Продюсер: Джордан Баркер / Jordan Barker, Borga Dorter, Давид Морли / David Morlet, Douchka Papierski, Аллан Фанг / Allan Fung
    Оператор: Николас Массар / Nicolas Massart
    Композитор: Thomas Couzinier, Fréderic Kooshmanian

    Мировая премьера: 31 марта 2013


    Скриншоты
    © Оформление by Vetalpb.wtf



  • Скачать Дом, милый дом через торрент http://i47.fastpic.ru/big/2013/0505/55/ff0fbc48f98fa52c0fc275351a996d55.png Скачать фильм Дом, милый дом через торрент бесплантно в хорошем качестве Описание:Фрэнк и Сара недавно переехали в провинцию, чтобы воспитать своего годовалого сына Адама подальше от хаоса и загрязнений большого ... 10 10 16
    Info! Золотая раздача, скачанное не засчитывается.
    Торрент: Зарегистрирован [2013-05-20 14:44] · скачан: 289 раз
    Статус: √ проверено
    Размер: 1.45 GB
    Как cкачать? Как скачать Дом, милый дом через торрент | qTorrent

    % Раздел Тема Автор DL S | L
    Фильмы 2015 [DVDrip, WEB-DLRip, HDrip] [ 1.46 GB ] Дом милый ад / Home Sweet Hell [2015 BDRip] MVO [ R5] bober100 Скачать
    1 | 0
    Фильмы 2014 [DVDrip, WEB-DLRip, HDrip] [ 2.14 GB ] Север ада / Дом милый ад / Home Sweet Hell [2014 BDRip-AVC] MVO potroks Скачать
    2 | 0
    T Фильмы [HD 720p, 1080p] (Хороший звук DUB, MVO) [ 3.43 GB ] Милый дом / Sweet Home [2015 BDRip 720p] MVO [Qwerty] Ворон Скачать
    1 | 0
    Фильмы 2015 [DVDrip, WEB-DLRip, HDrip] [ 1.42 GB ] Милый дом / Sweet Home [2015 HDRip Любительский [Qwerty] Ворон Скачать
    1 | 0
    Фильмы 2015 [DVDrip, WEB-DLRip, HDrip] [ 1.53 GB ] Милый дом / Sweet Home [2015 BDRip-AVC Любительский [Qwerty] Ворон Скачать
    1 | 0
    Фильмы 2014 [DVDrip, WEB-DLRip, HDrip] [ 1.46 GB ] Север ада / Дом милый ад / Home Sweet Hell [2014 HDRip многоголосый / ] Ворон Скачать
    1 | 0
    Фильмы [HD 720p, 1080p] (Хороший звук DUB, MVO) [ 10.65 GB ] Север ада / Дом милый ад / Home Sweet Hell [2014 BDRip 1080p многоголосый / ] Ворон Скачать
    1 | 0

    28-11-2019 20:33  

    Отключить всю рекламу на сайте

    27-06-2013 19:04 Дом, милый дом Скачать торрент  

    хрень полная, зря потраченное времяpb.wtf



      Дорогой пользователь! Огромная просьба, поблагодарите релизера, оцените раздачу и оставьте свои комментарий, если Вы скачали Дом, милый дом через торрент бесплатно! Внесите свою лепту в развитие PiratBit!
      Комментировать посты могут только пользователи прошедшие не сложную регистрацию
      Показать сообщения:    

      Дом, милый дом через торрент
      Скачать бесплатно Дом, милый дом
      Дом, милый дом скачать торрент
      Дом, милый дом смотреть онлайн
      Cкачать фильм Дом, милый дом бесплатно
      Дом, милый дом скачать торрент в хорошем качестве
      Дом, милый дом смотреть онлайн бесплатно в хорошем качестве


      Вы не можете начинать темы
      Вы не можете отвечать на сообщения
      Вы не можете редактировать свои сообщения
      Вы не можете удалять свои сообщения
      Вы не можете голосовать в опросах
      Вы не можете прикреплять файлы к сообщениям
      Вы можете скачивать файлы