Ссылка на приватное зеркало нашего сайта всего за 1$. Внимание количество ограничено!!!

2 сезон

iTunes

1 сезон

1

iTunes

iTunes

iTunes

1 сезон

RePack

30

ИГРА 18+

pack

ВАЖНО

!!Акция!!

Alien_RageХит недели

RePack

MK11
pack

Забери бонус

RePack

jed

!!Акция!!

Alien_Rage

RePack

fifa19

RePack

Assassins Creed: Odyssey

RePack

NEED FOR SPEED™ PAYBACK

4 сезон

9 сезон

Бесстыжие 9 сезон

Все сериалы

все сериалы на PB.wtf

RePack

FAR CRY 5
  

Простые истины / Straight A's (Джеймс Кокс) [2013 г., драма, комедия, BDRip 720p, MVO] pb.wtf

Простые истины через торрент pb.wtf

Размер: 3.62 GB | Добавлен: 7 лет 4 мес. назад | Торрент скачан:41 раз
Скачать  

20-05-2013 17:49 Простые истины Скачать торрент  

Простые истины / Straight A's
Год выпуска: 2013
Страна: США
Жанр: драма, комедия,
Продолжительность: 01:28:00
Перевод: Профессиональный многоголосый
Субтитры: Есть(английские вшитые)
________________________________________
Режиссер: Джеймс Кокс
Продюссер: Рене Бессон, Скут МакНэйри, Джон Пирс
Сценарий: Дэйв Коул, Дэвид Коул
В ролях: Анна Пакуин, Райан Филипп, Люк Уилсон, Пауэрс Бут, Райли Стюарт, Урсула Паркер, Криста Кэмпбелл, Тесс Харпер, Симона Левин
Бюджет: $2 000 000
Премьера в мире: 16 января 2013



Описание: Молодой человек на протяжении десяти лет регулярно проходил курс лечения в реабилитационном центре. По настоянию духа его покойной матери он возвращается к родным, от которых отдалился много лет назад. В результате он встречается со своим братом и его женой, которая до сих пор в него влюблена.
________________________________________
Качество: BDRip 720p
Формат: MKV
Видео кодек: AVC
Аудио кодек: AC3,DTS
Видео: MPEG-4 AVC, 4165 Кбит/с, 1280x522 Frame rate : 23.976 fps
Аудио#1(rus): 48.0 KHz,AC3, 2 ch, 192 Кбит/с
Аудио#2(eng): 48.0 KHz,DTS, 6 ch, 1509 Кбит/с
скриншот   скриншот   скриншот   скриншот   скриншот  

Video
ID : 1
Format : AVC
Format/Info : Advanced Video Codec
Format profile : High@L4.1
Format settings, CABAC : Yes
Format settings, ReFrames : 12 frames
Codec ID : V_MPEG4/ISO/AVC
Duration : 1h 28mn
Bit rate : 4 165 Kbps
Width : 1 280 pixels
Height : 522 pixels
Display aspect ratio : 2.452
Frame rate mode : Constant
Frame rate : 23.976 fps
Color space : YUV
Chroma subsampling : 4:2:0
Bit depth : 8 bits
Scan type : Progressive
Bits/(Pixel*Frame) : 0.260
Stream size : 2.50 GiB (69%)
Title : Straight.As.2013.BluRay.720p.DTS.x264-CHD
Writing library : x264 core 128 r2216 198a7ea
Encoding settings : cabac=1 / ref=12 / deblock=1:-3:-3 / analyse=0x3:0x113 / me=umh / subme=10 / psy=1 / psy_rd=1.10:0.15 / mixed_ref=1 / me_range=32 / chroma_me=1 / trellis=2 / 8x8dct=1 / cqm=0 / deadzone=21,11 / fast_pskip=0 / chroma_qp_offset=-2 / threads=12 / lookahead_threads=2 / sliced_threads=0 / nr=0 / decimate=1 / interlaced=0 / bluray_compat=0 / constrained_intra=0 / bframes=6 / b_pyramid=2 / b_adapt=2 / b_bias=0 / direct=3 / weightb=1 / open_gop=0 / weightp=2 / keyint=250 / keyint_min=23 / scenecut=40 / intra_refresh=0 / rc_lookahead=40 / rc=2pass / mbtree=0 / bitrate=4165 / ratetol=1.0 / qcomp=0.60 / qpmin=0 / qpmax=69 / qpstep=4 / cplxblur=20.0 / qblur=0.5 / vbv_maxrate=40000 / vbv_bufsize=30000 / nal_hrd=none / ip_ratio=1.40 / pb_ratio=1.30 / aq=1:0.80
Language : English
Default : Yes
Forced : Yes

Audio #1
ID : 2
Format : AC-3
Format/Info : Audio Coding 3
Mode extension : CM (complete main)
Format settings, Endianness : Big
Codec ID : A_AC3
Duration : 1h 28mn
Bit rate mode : Constant
Bit rate : 192 Kbps
Channel(s) : 2 channels
Channel positions : Front: L R
Sampling rate : 48.0 KHz
Bit depth : 16 bits
Compression mode : Lossy
Stream size : 122 MiB (3%)
Title : DD 2.0 @ 192 kbps - MVO, R5
Language : Russian
Default : Yes
Forced : Yes

Audio #2
ID : 3
Format : DTS
Format/Info : Digital Theater Systems
Mode : 16
Format settings, Endianness : Big
Codec ID : A_DTS
Duration : 1h 28mn
Bit rate mode : Constant
Bit rate : 1 509 Kbps
Channel(s) : 6 channels
Channel positions : Front: L C R, Side: L R, LFE
Sampling rate : 48.0 KHz
Bit depth : 24 bits
Compression mode : Lossy
Stream size : 957 MiB (26%)
Title : DTS 5.1 @ 1536 kbps
Language : English
Default : No
Forced : No

Text
ID : 4
Format : UTF-8
Codec ID : S_TEXT/UTF8
Codec ID/Info : UTF-8 Plain Text
Language : English
Default : No
Forced : No

ПРИЯТНОГО ПРОСМОТРА!!!
™Оформление by fiskerpb.wtf



Скачать Простые истины через торрент http://pic.kartinco.top/images/2/eymndzdcpm.jpg Скачать фильм Простые истины через торрент бесплантно в хорошем качестве Описание: Молодой человек на протяжении десяти лет регулярно проходил курс лечения в реабилитационном центре. По настоянию духа его ... 10 10 3
Info! Золотая раздача, скачанное не засчитывается.
Торрент: Зарегистрирован [2013-05-20 17:49] · скачан: 41 раз
Статус: √ проверено
Размер: 3.62 GB
Как cкачать? Как скачать Простые истины через торрент | qTorrent



Последний раз редактировалось: fisker from DREAM Paragon (2013-05-20 18:30), всего редактировалось 2 раз(а)

28-11-2019 20:33  

Отключить всю рекламу на сайте

20-05-2013 18:07 Простые истины Скачать торрент  

Со ссылкой на кинопоиск пошутил конечно...pb.wtf



06-12-2017 21:03 Простые истины Скачать торрент  

Фильм просто ПУШКА)pb.wtf



06-12-2017 21:11 Простые истины Скачать торрент  

чувак вернись на раздачу)pb.wtf



    Дорогой пользователь! Огромная просьба, поблагодарите релизера, оцените раздачу и оставьте свои комментарий, если Вы скачали Простые истины через торрент бесплатно! Внесите свою лепту в развитие PiratBit!
    Комментировать посты могут только пользователи прошедшие не сложную регистрацию
    Показать сообщения:    

    Простые истины через торрент
    Скачать бесплатно Простые истины
    Простые истины скачать торрент
    Простые истины смотреть онлайн
    Cкачать фильм Простые истины бесплатно
    Простые истины скачать торрент в хорошем качестве
    Простые истины смотреть онлайн бесплатно в хорошем качестве


    Вы не можете начинать темы
    Вы не можете отвечать на сообщения
    Вы не можете редактировать свои сообщения
    Вы не можете удалять свои сообщения
    Вы не можете голосовать в опросах
    Вы не можете прикреплять файлы к сообщениям
    Вы можете скачивать файлы