2 сезон

iTunes

MVO

1

2 сезон

iTunes

iTunes

1 сезон

RePack

30

Новинка

ВАЖНО

ИГРА 18+

pack

RePack

MK11
pack

Легкие деньги

RePack

jed

RePack

fifa19

RePack

RDR2

RePack

NEED FOR SPEED™ PAYBACK

4 сезон

9 сезон

Бесстыжие 9 сезон

Все сериалы

все сериалы на PB.wtf

RePack

FAR CRY 5

Anonymous, доброе утро, мы не успеваем собрать деньги на оплату серверов за декабрь и январь, помогите нам пожалуйста в это трудное время. В качестве благодарности мы отключим Вам всю рекламу на сайте (укажите свой ник в строку Ваше имя)!

×
  
Magnet ссылка

На Байкал (Михаил Козлов, Сергей Никонов) [2011, Россия, комедия, мелодрама, DVDRip] pb.wtf

На Байкал через торрент pb.wtf

Размер: 1.46 GB | Добавлен: 7 лет 7 мес. назад | Торрент скачан:519 раз
Скачать  

21-05-2013 03:32 На Байкал Скачать торрент  

На Байкал
Страна: Россия
Жанр: комедия, мелодрама
Год выпуска: 2011
Продолжительность: 01:26:27

Перевод: Не требуется
Cубтитры: нет

Режиссер: Михаил Козлов, Сергей Никонов

В ролях: Сергей Никонов (Валя), Евгений Жамцуев (Булат), Михаил Козлов (Степа), Александр Хамнушкин (Баир), Максим Покровский (прикольный дядька), Евгений Ганелин (преподаватель), Дарья Прокопьева (Нарана), Мария Галимова (подруга Нараны), Юлиана Шкабарова (подруга Нараны), Юлия Борисова (подруга Нараны), Наян Сагаев (отец Нараны), Артем Бурлов (жених Нараны)

Описание: Валентину, студенту института кинематографии Санкт-Петербурга, в качестве дипломной работы предстоит снять документальный фильм о Байкале. Его друзья напоминают ему о Степане, бывшем одногруппнике из Улан-Удэ. Он решает обратиться к нему за помощью.
В Улан-Удэ вместе со своими друзьями ребята попадают в различные курьезные ситуации. В течение трех они отдыхают на Байкале в Чивыркуйском заливе, помогают Валентину в съемках документального фильма и рассказывают о всех красотах «священного моря».

Качество видео: DVDRip
Формат видео: AVI
Видео кодек: XviD
Аудио кодек: MP3
Видео: 704x400 (1.76:1), 25 fps, XviD build 50 ~2272 kbps avg, 0.32 bit/pixel
Аудио: 48 kHz, MPEG Layer 3, 2 ch, ~128.00 kbps avg
Раздача от:
D:Na Baykal_DVDRip.1.45 [YTN] by dexter lex.avi
General
Complete name : D:Na Baykal_DVDRip.1.45 [YTN] by dexter lex.avi
Format : AVI
Format/Info : Audio Video Interleave
File size : 1.46 GiB
Duration : 1h 26mn
Overall bit rate : 2 410 Kbps
Writing application : VirtualDubMod 1.5.10.3 | www.virtualdub-fr.org || (build 2550/release)
Writing library : VirtualDubMod build 2550/release
Video #0
ID : 0
Format : MPEG-4 Visual
Format profile : Advanced Simple@L5
Format settings, BVOP : 1
Format settings, QPel : No
Format settings, GMC : No warppoints
Format settings, Matrix : Custom
Codec ID : XVID
Codec ID/Hint : XviD
Duration : 1h 26mn
Bit rate : 2 272 Kbps
Width : 704 pixels
Height : 400 pixels
Display aspect ratio : 16:9
Frame rate : 25.000 fps
Color space : YUV
Chroma subsampling : 4:2:0
Bit depth : 8 bits
Scan type : Progressive
Compression mode : Lossy
Bits/(Pixel*Frame) : 0.323
Stream size : 1.37 GiB (94%)
Writing library : XviD 50
Audio #1
ID : 1
Format : MPEG Audio
Format version : Version 1
Format profile : Layer 3
Codec ID : 55
Codec ID/Hint : MP3
Duration : 1h 26mn
Bit rate mode : Constant
Bit rate : 128 Kbps
Channel(s) : 2 channels
Sampling rate : 48.0 KHz
Compression mode : Lossy
Stream size : 79.2 MiB (5%)
Alignment : Aligned on interleaves
Interleave, duration : 40 ms (1.00 video frame)
Interleave, preload duration : 504 ms
Writing library : LAME3.99r
Encoding settings : -m s -V 4 -q 2 -lowpass 17 -b 128
http://multi-up.com/867607
pb.wtf



Скачать На Байкал через торрент http://i46.fastpic.ru/big/2013/0520/e7/cc4c5cd2d5ba3aa73e14910242c012e7.jpg Скачать фильм На Байкал через торрент бесплантно в хорошем качестве Описание: Валентину, студенту института кинематографии Санкт-Петербурга, в качестве дипломной работы предстоит снять документальный фильм о ... 8.8 10 14
Info! Золотая раздача, скачанное не засчитывается.
Торрент: Зарегистрирован [2013-05-21 03:32] · скачан: 519 раз
Статус: √ проверено
Размер: 1.46 GB
Как cкачать? Как скачать На Байкал через торрент | UTorrent

% Раздел Тема Автор DL S | L
Зарубежные сериалы [ 43.27 GB ] Великолепный век / Muhtesem Yuzyil [2014-2015 г военный биография история SATRip многоголосый " ТК Домашний "] DoGmA_TM Скачать
1 | 0
T Наши новые фильмы 2015 [ 1.45 GB ] Байкальские каникулы [2015 г WEB-DLRip] bober100 Скачать
1 | 0
T Наши фильмы (HD, WEB-DL 720p, 1080p) [ 2.14 GB ] Байкальские каникулы [2015 WEB-DL 720p] smaster Скачать
1 | 0
Фильмы (HD 720p, 1080p) (48-60 fps) [ 6.59 GB ] Байки из склепа: Кровавый бордель / Bordello of Blood [1996 BDRip 720p многоголосый] 60fps от mimok mimok Скачать
1 | 0
Наши сериалы [ 7.41 GB ] Байки Митяя [2011 DVDRip] Оригинал Бумер Скачать
1 | 0
Зарубежные сериалы [ 895 MB ] Великолепный век / Muhtesem Yuzyil [2014 военный биография история SATRip многоголосый " ТК Домашний "] DoGmA_TM Скачать
1 | 0
Порно фильмы с русским переводом [ 1.31 GB ] Байки от Рокко 8 / Rocco - More Than Furious Fuckers. [2008 Anal Gonzo. DVDRip одноголосый] Pir@tya2010 Скачать
1 | 0

28-11-2019 20:33  

Отключить всю рекламу на сайте

21-05-2013 06:50 На Байкал Скачать торрент  

Раздающему спасибо! Но фильм досмотреть не смог Еще, какое-то, замыливание кадра при движении камеры.pb.wtf



21-05-2013 09:41 На Байкал Скачать торрент  

А откуда исходник то? Можно в личку, нет ни где же, окромя DVDSCR.pb.wtf



21-05-2013 16:06 На Байкал Скачать торрент  

Роман™

В личку все написал, исходник собственный.pb.wtf



18-11-2013 14:59 На Байкал Скачать торрент  

Фильм офигенный,смотрел в армии 2 раза ^_^
Фильм понравился,есть над чем посмеятьсяpb.wtf



    Дорогой пользователь! Огромная просьба, поблагодарите релизера, оцените раздачу и оставьте свои комментарий, если Вы скачали На Байкал через торрент бесплатно! Внесите свою лепту в развитие PiratBit!
    Комментировать посты могут только пользователи прошедшие не сложную регистрацию
    Показать сообщения:    

    На Байкал через торрент
    Скачать бесплатно На Байкал
    На Байкал скачать торрент
    На Байкал смотреть онлайн
    Cкачать фильм На Байкал бесплатно
    На Байкал скачать торрент в хорошем качестве
    На Байкал смотреть онлайн бесплатно в хорошем качестве


    Вы не можете начинать темы
    Вы не можете отвечать на сообщения
    Вы не можете редактировать свои сообщения
    Вы не можете удалять свои сообщения
    Вы не можете голосовать в опросах
    Вы не можете прикреплять файлы к сообщениям
    Вы можете скачивать файлы