Ссылка на приватное зеркало нашего сайта всего за 1$. Внимание количество ограничено!!!

2 сезон

iTunes

1 сезон

1

2 сезон

2 сезон

iTunes

1 сезон

RePack

30

Ultimate

ВАЖНО

ИГРА 18+

pack

RePack

MK11
pack

Забери бонус

RePack

jed

!!Акция!!

Alien_Rage

RePack

fifa19

RePack

Assassins Creed: Odyssey

RePack

NEED FOR SPEED™ PAYBACK

4 сезон

9 сезон

Бесстыжие 9 сезон

Все сериалы

все сериалы на PB.wtf

RePack

FAR CRY 5
  

(Hard Rock) Vega - What The Hell! - 2013, FLAC (tracks+.cue), lossless 2013 / FLAC (image + .cue) / lossless / Hard Rock pb.wtf

через торрент pb.wtf

Размер: 405 MB | Добавлен: 7 лет 6 мес. назад | Торрент скачан:20 раз
Скачать  

21-05-2013 16:11 Скачать торрент  

Vega / What The Hell!
Страна: UK
Жанр: Hard Rock
Издатель (лейбл):Ninetone Records
Год выпуска: 2013
Формат: FLAC (image + .cue)
Битрейт аудио: lossless
Продолжительность: 00:55:37
Наличие сканов в содержимом раздачи: Нет
Exact Audio Copy V1.0 beta 3 from 29. August 2011

EAC extraction logfile from 7. May 2013, 15:36

Vega / What The Hell!

Used drive : TSSTcorpCDDVDW SH-S223Q Adapter: 8 ID: 0

Read mode : Secure
Utilize accurate stream : Yes
Defeat audio cache : Yes
Make use of C2 pointers : No

Read offset correction : 6
Overread into Lead-In and Lead-Out : No
Fill up missing offset samples with silence : Yes
Delete leading and trailing silent blocks : No
Null samples used in CRC calculations : Yes
Used interface : Native Win32 interface for Win NT & 2000
Gap handling : Appended to previous track

Used output format : User Defined Encoder
Selected bitrate : 128 kBit/s
Quality : High
Add ID3 tag : No
Command line compressor : C:Program Files (x86)Exact Audio CopyFlacflac.exe
Additional command line options : --best --picture="C:FLACfolder.jpg" -P 4096 -V -T "ARTIST=%artist%" -T "TITLE=%title%" -T "ALBUM=%albumtitle%" -T "TRACKNUMBER=%tracknr%" %source% -o %dest%

TOC of the extracted CD

Track | Start | Length | Start sector | End sector
---------------------------------------------------------
1 | 0:00.00 | 0:46.22 | 0 | 3471
2 | 0:46.22 | 3:40.46 | 3472 | 20017
3 | 4:26.68 | 3:42.20 | 20018 | 36687
4 | 8:09.13 | 4:31.42 | 36688 | 57054
5 | 12:40.55 | 4:22.30 | 57055 | 76734
6 | 17:03.10 | 3:17.60 | 76735 | 91569
7 | 20:20.70 | 5:12.64 | 91570 | 115033
8 | 25:33.59 | 4:04.40 | 115034 | 133373
9 | 29:38.24 | 4:05.54 | 133374 | 151802
10 | 33:44.03 | 4:05.65 | 151803 | 170242
11 | 37:49.68 | 4:20.74 | 170243 | 189816
12 | 42:10.67 | 4:07.64 | 189817 | 208405
13 | 46:18.56 | 4:32.68 | 208406 | 228873
14 | 50:51.49 | 4:45.11 | 228874 | 250259

Track 1

Filename C:FLACVegaWhat The Hell!�1 - Audeat Somniare.wav

Pre-gap length 0:00:02.00

Peak level 81.4 %
Extraction speed 2.7 X
Track quality 100.0 %
Test CRC 72CB6513
Copy CRC 72CB6513
Track not present in AccurateRip database
Copy OK

Track 2

Filename C:FLACVegaWhat The Hell!�2 - White-Knuckle Ride.wav

Pre-gap length 0:00:01.98

Peak level 98.8 %
Extraction speed 4.4 X
Track quality 100.0 %
Test CRC DF34EA2D
Copy CRC DF34EA2D
Track not present in AccurateRip database
Copy OK

Track 3

Filename C:FLACVegaWhat The Hell!�3 - What The Hell!.wav

Pre-gap length 0:00:01.98

Peak level 98.8 %
Extraction speed 4.8 X
Track quality 100.0 %
Test CRC 55E56095
Copy CRC 55E56095
Track not present in AccurateRip database
Copy OK

Track 4

Filename C:FLACVegaWhat The Hell!�4 - Not There For You.wav

Pre-gap length 0:00:01.98

Peak level 98.8 %
Extraction speed 4.5 X
Track quality 99.9 %
Test CRC 47989BD3
Copy CRC 47989BD3
Track not present in AccurateRip database
Copy OK

Track 5

Filename C:FLACVegaWhat The Hell!�5 - Cry.wav

Pre-gap length 0:00:01.98

Peak level 98.8 %
Extraction speed 5.8 X
Track quality 100.0 %
Test CRC 57AD2CA8
Copy CRC 57AD2CA8
Track not present in AccurateRip database
Copy OK

Track 6

Filename C:FLACVegaWhat The Hell!�6 - Raise Ya Game.wav

Pre-gap length 0:00:01.98

Peak level 98.8 %
Extraction speed 5.9 X
Track quality 100.0 %
Test CRC 6128CAC7
Copy CRC 6128CAC7
Track not present in AccurateRip database
Copy OK

Track 7

Filename C:FLACVegaWhat The Hell!�7 - Fade Into The Flames.wav

Pre-gap length 0:00:01.98

Peak level 98.8 %
Extraction speed 6.7 X
Track quality 100.0 %
Test CRC 6441C1E1
Copy CRC 6441C1E1
Track not present in AccurateRip database
Copy OK

Track 8

Filename C:FLACVegaWhat The Hell!�8 - You Can't Run.wav

Pre-gap length 0:00:01.98

Peak level 98.8 %
Extraction speed 6.8 X
Track quality 100.0 %
Test CRC D12F6D44
Copy CRC D12F6D44
Track not present in AccurateRip database
Copy OK

Track 9

Filename C:FLACVegaWhat The Hell!�9 - Bless My Soul.wav

Pre-gap length 0:00:01.98

Peak level 98.8 %
Extraction speed 7.2 X
Track quality 100.0 %
Test CRC CAB780F0
Copy CRC CAB780F0
Track not present in AccurateRip database
Copy OK

Track 10

Filename C:FLACVegaWhat The Hell!10 - She Walks Alone.wav

Pre-gap length 0:00:01.98

Peak level 98.8 %
Extraction speed 7.5 X
Track quality 100.0 %
Test CRC 8084F601
Copy CRC 8084F601
Track not present in AccurateRip database
Copy OK

Track 11

Filename C:FLACVegaWhat The Hell!11 - Turn It On.wav

Pre-gap length 0:00:01.98

Peak level 98.8 %
Extraction speed 7.7 X
Track quality 100.0 %
Test CRC 7542703A
Copy CRC 7542703A
Track not present in AccurateRip database
Copy OK

Track 12

Filename C:FLACVegaWhat The Hell!12 - Saviour.wav

Pre-gap length 0:00:01.98

Peak level 98.8 %
Extraction speed 7.9 X
Track quality 100.0 %
Test CRC 09140296
Copy CRC 09140296
Track not present in AccurateRip database
Copy OK

Track 13

Filename C:FLACVegaWhat The Hell!13 - It's Gonna Be Alright.wav

Pre-gap length 0:00:01.98

Peak level 98.8 %
Extraction speed 6.7 X
Track quality 99.9 %
Test CRC 12BC5251
Copy CRC 12BC5251
Track not present in AccurateRip database
Copy OK

Track 14

Filename C:FLACVegaWhat The Hell!14 - Hands In The Air.wav

Pre-gap length 0:00:01.98

Peak level 98.8 %
Extraction speed 8.7 X
Track quality 100.0 %
Test CRC 5C29ADF1
Copy CRC 5C29ADF1
Track not present in AccurateRip database
Copy OK

None of the tracks are present in the AccurateRip database

No errors occurred

End of status report

==== Log checksum FDD09F9668AF4ABD79F79030AC7E7E1C6681CF45B42734336B9E3E73B565DED6 ====
01. Audeat Somniare
02. White-Knuckle Ride
03. What The Hell!
04. Not There For You
05. Cry
06. Raise Ya Game
07. Fade Into The Flames
08. You Can't Run
09. Bless My Soul
10. She Walks Alone
11. Turn It On
12. Saviour
13. It's Gonna Be Alright
14. Hands In The Air
pb.wtf



Скачать через торрент http://pic.kartinco.top/images/2/klwwwxbr17.jpg Скачать фильм через торрент бесплантно в хорошем качестве Трэклист Audeat Somniare White-Knuckle Ride What The Hell! Not There For You Cry Raise Ya Game Fade Into The ... 10 10 1
Info! Золотая раздача, скачанное не засчитывается.
Торрент: Зарегистрирован [2013-05-21 16:30] · скачан: 20 раз
Статус: √ проверено
Размер: 405 MB
Как cкачать? Как скачать через торрент | qTorrent

% Раздел Тема Автор DL S | L
Classic Rock & Hard Rock (lossless) [ 486 MB ] Deep Purple ‎– Hit Collection 2000 / FLAC / lossless / Hard Rock Azat17 Скачать
1 | 1
Classic Rock & Hard Rock (lossless) [ 862 MB ] Van Halen - Live Tokyo Dome In Concert - 2015/ FLAC/ image+.cue/ lossless/ Hard Rock sergej644 Скачать
1 | 0
Classic Rock & Hard Rock (lossless) [ 491 MB ] April Wine - First Glance Harder...Faster - 1978 / 79 / 2007/ APE/ image+.cue/ lossless/ Classic Rock sergej644 Скачать
1 | 0
Classic Rock & Hard Rock (lossless) [ 1.53 GB ] BLACK SABBATH - LIVE EVIL 1982 1996 / FLAC / lossless / Hard Rock Heavy Metal Azat17 Скачать
1 | 1
Classic Rock & Hard Rock (lossless) [ 1.01 GB ] Bon Jovi - Greatest Hits The Ultimate Collection - 2010/ FLAC/ tracks+.cue/ lossless/ Hard Rock sergej644 Скачать
1 | 0
Classic Rock & Hard Rock (lossless) [ 2.69 GB ] UFO - Japanese 1st Presses Collection 1974-1985 - 1992/ FLAC/ image+.cue/ lossless/ Hard Rock sergej644 Скачать
1 | 0
Classic Rock & Hard Rock (lossless) [ 419 MB ] Hollywood Vampires - Hollywood Vampires 2015 / APE / lossless / Hard Rock Azat17 Скачать
1 | 0

28-11-2019 20:33  

Отключить всю рекламу на сайте

    Дорогой пользователь! Огромная просьба, поблагодарите релизера, оцените раздачу и оставьте свои комментарий, если Вы скачали через торрент бесплатно! Внесите свою лепту в развитие PiratBit!
    Комментировать посты могут только пользователи прошедшие не сложную регистрацию
    Показать сообщения:    

    через торрент
    Скачать бесплатно
    скачать торрент
    смотреть онлайн
    Cкачать фильм бесплатно
    скачать торрент в хорошем качестве
    смотреть онлайн бесплатно в хорошем качестве


    Вы не можете начинать темы
    Вы не можете отвечать на сообщения
    Вы не можете редактировать свои сообщения
    Вы не можете удалять свои сообщения
    Вы не можете голосовать в опросах
    Вы не можете прикреплять файлы к сообщениям
    Вы можете скачивать файлы