Мега распродажа FORZA HORIZON 4 ULTIMATE+ВСЕ DLC+ОНЛАЙН всего за 499р. 349 руб. (супер цена). Внимание количество ограничено!!!

iTunes

1+1

iTunes

мы

iTunes

1

1 сезон

Чернобыль

1 сезон

Ральф против интернета

Лицензия

ПШазам

8 сезон

Игра престолов

Лицензия

30
pack

ВАЖНО

!!Акция!!

Alien_RageХит недели

RePack

Resident Evil 21

ИГРА 18+

pack

RePack

Metro:Exodus

!!Акция!!

Alien_Rage

RePack

fifa19

RePack

Assassins Creed: Odyssey

RePack

NEED FOR SPEED™ PAYBACK

3 сезон

9 сезон

Бесстыжие 9 сезон

Все сериалы

все сериалы на PB.wtf

RePack

FAR CRY 5
Ребята, катастрофически не хватает 2730р. для оплаты серверов за ИЮНЬ (всвязи с блокировками трафик упал в 3 раза), 1-2р., выручайте.
  

Свидание вслепую / Blind Date (Блейк Эдвардс / Blake Edwards) [1987, комедия, мелодрама, DVDRip, Дубляж, Профессиональный многоголосный] pb.wtf

Свидание вслепую через торрент pb.wtf

Размер: 1.5 GB | Добавлен: 6 лет 1 мес. назад | Торрент скачан:77 раз
Скачать  

21-05-2013 16:14 Свидание вслепую Скачать торрент  

Свидание вслепую / Blind Date
Год выпуска: 1987
Страна: США
Жанр: комедия, мелодрама
Продолжительность: 01:31:18
Перевод 1: Профессиональный (дублированный)[Варус Видео]
Перевод 2: Профессиональный (многоголосый закадровый)[Видеосервис]
Cубтитры: нет
Оригинальная аудиодорожка: английский

Режиссер: Блейк Эдвардс / Blake Edwards

В ролях: Ким Бейсингер, Брюс Уиллис, Джон Ларрокетт, Уильям Дэниелс, Джордж Коу, Марк Блум, Фил Хартмен,
Стефани Фэраси, Элис Хёрсон, Грэм Старк

Описание: Уолтер Дэвис — трудоголик, и вполне естественно, что все свое внимание он уделяет работе, а не личной жизни или внешности. Для очень важной деловой встречи в ресторане с новым партнером из Японии, Уолтеру потребовалась спутница. Его брат посоветовал взять с собой очаровательную Надю, кузину его жены. Но есть одно но: Наде нельзя пить… совсем! К сожалению, это предупреждение Уолтер пропустил мимо ушей.

Сэмпл: http://narod.ru/disk/22735081000/Blind_Date_sample.avi.html

Качество видео: DVDRip
Формат видео: AVI
Видео кодек: XVID
Аудио кодек: MP3
Видео: XVID, 720 x 304, 1750kbps, 25.000 frames/s, 0.32 bit/pixel
Аудио 1: 48 kHz MPEG Layer 3 2 ch 192.00 kbps avg [Варус Видео]
Аудио 2: 48 kHz MPEG Layer 3 2 ch 192.00 kbps avg [Видеосервис]
Аудио 3: 48 kHz MPEG Layer 3 2 ch 192.00 kbps avg [английский

Релиз группы
ОСОБАЯ БЛАГОДАРНОСТЬ darck за синхронизацию дублированной дорожки.
Фильм дублирован на студии "Варус Видео"
Автор синхронного текста и режиссёр дубляжа Валентина Кузнецова
Звукооператор Анатолий Антропов
Перевод Елены Каноненко
Редактор Владимир Заика
Директор Людмила Бронникова
Роли дублировали:
Анна Каменкова, Алексей Золотницкий, Владимир Антоник, Олег Голубицкий, Виктор Петров, Дмитрий Полонский, Егор Грамматиков, Елена Соловьева, Василий Куприянов
E:INTERNETÑâèäàíèå â ñëåïóþ.1987. DVDRip..avi
General
Complete name : E:INTERNETÑâèäàíèå â ñëåïóþ.1987. DVDRip..avi
Format : AVI
Format/Info : Audio Video Interleave
File size : 1.50 GiB
Duration : 1h 31mn
Overall bit rate : 2 346 Kbps
Writing application : VirtualDubMod 1.5.10.2 (build 2540/release)
Writing library : VirtualDubMod build 2540/release
Video #0
ID : 0
Format : MPEG-4 Visual
Format profile : Advanced Simple@L5
Format settings, BVOP : 1
Format settings, QPel : No
Format settings, GMC : No warppoints
Format settings, Matrix : Custom
Codec ID : XVID
Codec ID/Hint : XviD
Duration : 1h 31mn
Bit rate : 1 750 Kbps
Width : 720 pixels
Height : 304 pixels
Display aspect ratio : 2.35:1
Frame rate : 25.000 fps
Color space : YUV
Chroma subsampling : 4:2:0
Bit depth : 8 bits
Scan type : Progressive
Compression mode : Lossy
Bits/(Pixel*Frame) : 0.320
Stream size : 1.12 GiB (75%)
Writing library : XviD 1.2.1 (UTC 2008-12-04)
Audio #1
ID : 1
Format : MPEG Audio
Format version : Version 1
Format profile : Layer 3
Mode : Joint stereo
Mode extension : MS Stereo
Codec ID : 55
Codec ID/Hint : MP3
Duration : 1h 31mn
Bit rate mode : Constant
Bit rate : 192 Kbps
Channel(s) : 2 channels
Sampling rate : 48.0 KHz
Compression mode : Lossy
Stream size : 125 MiB (8%)
Alignment : Aligned on interleaves
Interleave, duration : 40 ms (1.00 video frame)
Interleave, preload duration : 504 ms
Language : Russian
Audio #2
ID : 2
Format : MPEG Audio
Format version : Version 1
Format profile : Layer 3
Mode : Joint stereo
Mode extension : MS Stereo
Codec ID : 55
Codec ID/Hint : MP3
Duration : 1h 31mn
Bit rate mode : Constant
Bit rate : 192 Kbps
Channel(s) : 2 channels
Sampling rate : 48.0 KHz
Compression mode : Lossy
Stream size : 125 MiB (8%)
Alignment : Aligned on interleaves
Interleave, duration : 40 ms (1.00 video frame)
Interleave, preload duration : 504 ms
Writing library : LAME3.97
Encoding settings : -m j -V 4 -q 2 -lowpass 18.6 -b 192
Language : English
Audio #3
ID : 3
Format : MPEG Audio
Format version : Version 1
Format profile : Layer 3
Mode : Joint stereo
Mode extension : MS Stereo
Codec ID : 55
Codec ID/Hint : MP3
Duration : 1h 31mn
Bit rate mode : Constant
Bit rate : 192 Kbps
Channel(s) : 2 channels
Sampling rate : 48.0 KHz
Compression mode : Lossy
Stream size : 125 MiB (8%)
Alignment : Aligned on interleaves
Interleave, duration : 40 ms (1.00 video frame)
Interleave, preload duration : 504 ms
Writing library : LAME3.97
Encoding settings : -m j -V 4 -q 2 -lowpass 18.6 -b 192
pb.wtf



Скачать Свидание вслепую через торрент http://i47.fastpic.ru/big/2013/0521/85/a9037427c6cb61e887e5ce9526906e85.jpg Скачать фильм Свидание вслепую через торрент бесплантно в хорошем качестве Описание: Уолтер Дэвис — трудоголик, и вполне естественно, что все свое внимание он уделяет работе, а не личной жизни или внешности. Для ... 10 10 5
Info! Золотая раздача, скачанное не засчитывается.
Торрент: Зарегистрирован [2013-05-21 16:43] · скачан: 77 раз
Статус: √ проверено
Размер: 1.5 GB
Как cкачать? Как скачать Свидание вслепую через торрент | qTorrent

% Раздел Тема Автор DL S | L
Фильмы до 2000 г. [ 1.45 GB ] Свидание вслепую / Blind Date [1987 BDRip ] DUB Ворон Скачать
1 | 0
Порно фильмы HD [ 4.37 GB ] Свидание вслепую / Blind Date [2013 All Sex Feature BDRip 720p Оригинал] sheker187 Скачать
1 | 0
Порно фильмы с сюжетом [ 656 MB ] Свидание Вслепую / Blind Date [2013 All Sex Feature DVDRip Оригинал] sheker187 Скачать
1 | 0
Секс с подростками [ 337 MB ] Свидание вслепую с членом / Lily Carter [2012 Natural Tits Brunette Deep Throat Teen SATRip] Azazele Скачать
1 | 0
Фильмы до 2000 г. [ 2.19 GB ] Свидание вслепую / Blind Date [1987 HDTVRip ] Sудья Скачать
1 | 0


Последний раз редактировалось: killermax2013 (2013-05-21 16:43), всего редактировалось 1 раз


>> Регистрируемся здесь <<






Отзывы и комментарии о схеме читаем и пишем здесь: ---> Отзывы и комментарии о схеме

Новые благодарочки в телеграм довольных пользователей:
скриншот   скриншот   скриншот   скриншот   скриншот

21-05-2013 16:18 Свидание вслепую Скачать торрент  

классная комедия с Брюссом Уиллисом и Ким Бейсингер pb.wtf



21-05-2013 16:29 Свидание вслепую Скачать торрент  

killermax2013
Пере залейте торент файл, без названия стороннего ресурса.
Добавьте MediaIfo

Как получить информацию по видео файлу? pb.wtf



21-05-2013 16:44 Свидание вслепую Скачать торрент  

Vetаl писал(а):

killermax2013
Пере залейте торент файл, без названия стороннего ресурса.
Добавьте MediaIfo

Как получить информацию по видео файлу?

без проблем все исправленоpb.wtf



21-05-2013 16:46 Свидание вслепую Скачать торрент  

killermax2013
ай молодца,отличный фильм :good2:pb.wtf



21-05-2013 17:02 Свидание вслепую Скачать торрент  

Безенчук писал(а):

killermax2013
ай молодца,отличный фильм :good2:

бесспорно фильм отличный только недавно случайно надыбал его в дубляже,скачал в коллекцию и сюда выложил pb.wtf



21-05-2013 21:10 Свидание вслепую Скачать торрент  

Хороший фильм.pb.wtf



    Дорогой пользователь! Огромная просьба, поблагодарите релизера, оцените раздачу и оставьте свои комментарий, если Вы скачали Свидание вслепую через торрент бесплатно! Внесите свою лепту в развитие PiratBit!
    Комментировать посты могут только пользователи прошедшие не сложную регистрацию
    Показать сообщения:    

    Свидание вслепую через торрент
    Скачать бесплатно Свидание вслепую
    Свидание вслепую скачать торрент
    Свидание вслепую смотреть онлайн
    Cкачать фильм Свидание вслепую бесплатно
    Свидание вслепую скачать торрент в хорошем качестве
    Свидание вслепую смотреть онлайн бесплатно в хорошем качестве


    Вы не можете начинать темы
    Вы не можете отвечать на сообщения
    Вы не можете редактировать свои сообщения
    Вы не можете удалять свои сообщения
    Вы не можете голосовать в опросах
    Вы не можете прикреплять файлы к сообщениям
    Вы можете скачивать файлы