Ссылка на приватное зеркало нашего сайта всего за 1$. Внимание количество ограничено!!!

2 сезон

iTunes

1 сезон

1

iTunes

iTunes

iTunes

1 сезон

RePack

30

ИГРА 18+

pack

ВАЖНО

!!Акция!!

Alien_RageХит недели

RePack

MK11
pack

Забери бонус

RePack

jed

!!Акция!!

Alien_Rage

RePack

fifa19

RePack

Assassins Creed: Odyssey

RePack

NEED FOR SPEED™ PAYBACK

4 сезон

9 сезон

Бесстыжие 9 сезон

Все сериалы

все сериалы на PB.wtf

RePack

FAR CRY 5
  

Супермен: Свободный / Superman: Unbound (Джеймс Такер) [2013 г., Мультфильм, боевик, приключения, BDRip, VO] pb.wtf

Супермен: Свободный через торрент pb.wtf

Размер: 1.46 GB | Добавлен: 7 лет 5 мес. назад | Торрент скачан:363 раза
Скачать  

21-05-2013 19:54 Супермен: Свободный Скачать торрент  

Супермен: Свободный / Superman: Unbound
Год выпуска: 2013
Страна: USA Warner Premiere, DC Entertainment, Warner Bros. Animation
Жанр: Мультфильм, боевик, приключения,
Продолжительность: 01:15
Перевод: Любительский одноголосый

Режиссер: Джеймс Такер
Продюссер: Алан Барнетт, Сэм Реджистер, Джеймс Такер

Премьера в мире: 7 мая 2013

В ролях: Мэтт Бомер, Стана Катич, Джон Ноубл, Молли С. Куинн, Дидрих Бадер, Джейсон Бех, Фрэнсис Конрой, Йен Джеймс Корлетт, Мелисса Дисней, Александр Гоулд,

Описание: Супермен узнает о безжалостном злодее Брейниаке, который захватил и уменьшил столицу его родной планеты Криптон, город Кандор.
Вместе со своей непредсказуемой кузиной Супергел, Супермен должен защитить свою родную планету от все возрастающей мощи Брейниака.

Качество: BDRip 720p
Формат:MKV
Видео кодек: AVC
Аудио кодек: AC-3
Видео: H.264, 1280x720 (16:9), 23,976 fps, 2331 Кbps, 0.105 bit/pixel
Аудио: 48 kHz, AC3 DD, 3/2 (L,C,R,l,r) + LFE ch, 448.00 kbps








Общее
Уникальный идентификатор : 227776527889997068626916959037235229598 (0xAB5C29DFABA191489E1BD0F0BA05739E)
Полное имя : Supermen.Svobodnyj.2013.BDRip.x264.potroks.mkv
Формат : Matroska
Версия формата : Version 4 / Version 2
Размер файла : 1,46 Гбайт
Продолжительность : 1 ч. 15 м.
Общий поток : 2782 Кбит/сек
Название фильма : -=POTROKS=-
Дата кодирования : UTC 2013-05-18 02:08:15
Программа кодирования : mkvmerge v5.9.0 ('On The Loose') built on Dec 15 2012 16:39:58
Библиотека кодирования : libebml v1.3.0 + libmatroska v1.4.0

Видео
Идентификатор : 1
Формат : AVC
Формат/Информация : Advanced Video Codec
Профиль формата : High@L4.1
Параметр CABAC формата : Да
Параметр ReFrames формата : 8 кадров
Идентификатор кодека : V_MPEG4/ISO/AVC
Продолжительность : 1 ч. 15 м.
Битрейт : 2331 Кбит/сек
Ширина : 1280 пикселей
Высота : 720 пикселей
Соотношение сторон : 16:9
Режим частоты кадров : Постоянный
Частота кадров : 23,976 кадра/сек
Цветовое пространство : YUV
Субдискретизация насыщенности : 4:2:0
Битовая глубина : 8 бит
Тип развёртки : Прогрессивная
Бит/(Пиксели*Кадры) : 0.105
Размер потока : 1,20 Гбайт (82%)
Заголовок : Superman: Unbound
Библиотека кодирования : x264 core 125 r2208 d9d2288
Настройки программы : cabac=1 / ref=8 / deblock=1:-1:-1 / analyse=0x3:0x133 / me=umh / subme=11 / psy=1 / psy_rd=1.06:0.02 / mixed_ref=1 / me_range=24 / chroma_me=1 / trellis=2 / 8x8dct=1 / cqm=0 / deadzone=21,11 / fast_pskip=0 / chroma_qp_offset=-3 / threads=6 / lookahead_threads=1 / sliced_threads=0 / nr=0 / decimate=1 / interlaced=0 / bluray_compat=0 / constrained_intra=0 / bframes=9 / b_pyramid=2 / b_adapt=2 / b_bias=0 / direct=3 / weightb=1 / open_gop=0 / weightp=2 / keyint=240 / keyint_min=23 / scenecut=40 / intra_refresh=0 / rc_lookahead=100 / rc=2pass / mbtree=1 / bitrate=2331 / ratetol=1.0 / qcomp=0.70 / qpmin=0 / qpmax=69 / qpstep=4 / cplxblur=20.0 / qblur=0.5 / vbv_maxrate=50000 / vbv_bufsize=62500 / nal_hrd=none / ip_ratio=1.35 / aq=1:0.80
Язык : English
Default : Да
Forced : Нет

Аудио
Идентификатор : 2
Формат : AC-3
Формат/Информация : Audio Coding 3
Расширение режима : CM (complete main)
Параметр Endianness формата : Big
Идентификатор кодека : A_AC3
Продолжительность : 1 ч. 15 м.
Вид битрейта : Постоянный
Битрейт : 448 Кбит/сек
Каналы : 6 каналов
Расположение каналов : Front: L C R, Side: L R, LFE
Частота : 48,0 КГц
Битовая глубина : 16 бит
Метод сжатия : С потерями
Размер потока : 241 Мбайт (16%)
Язык : Russian
Default : Да
Forced : Нет

Текст
Идентификатор : 3
Формат : UTF-8
Идентификатор кодека : S_TEXT/UTF8
Идентификатор кодека/Информация : UTF-8 Plain Text
Язык : English
Default : Нет
Forced : Нетpb.wtf



Скачать Супермен: Свободный через торрент http://wpc.556e.edgecastcdn.net/80556E/img.product/DVrbio75lXvVuw_5_l.jpg Скачать фильм Супермен: Свободный через торрент бесплантно в хорошем качестве Описание: Супермен узнает о безжалостном злодее Брейниаке, который захватил и уменьшил столицу его родной планеты Криптон, город Кандор. ... 9.8 10 27
Info! Золотая раздача, скачанное не засчитывается.
Торрент: Зарегистрирован [2013-05-21 19:54] · скачан: 363 раз
Статус: T временная
Размер: 1.46 GB
Как cкачать? Как скачать Супермен: Свободный через торрент | qTorrent

% Раздел Тема Автор DL S | L
T Иностранные мультфильмы [ 1.37 GB ] Супермен: Свободный / Superman: Unbound [2013 мультфильм HDRip] diletant Скачать
1 | 0


Последний раз редактировалось: Whiteswan902 (2013-05-22 06:30), всего редактировалось 16 раз(а)

28-11-2019 20:33  

Отключить всю рекламу на сайте

21-05-2013 20:13 Супермен: Свободный Скачать торрент  

Хорошая рисовка, жаль одноголосый переводpb.wtf



21-05-2013 20:27 Супермен: Свободный Скачать торрент  

Последний скриншот информативный pb.wtf



21-05-2013 20:30 Супермен: Свободный Скачать торрент  

Не стоит смотреть в такой озвучке. Очень скоро появится дубляж.pb.wtf



21-05-2013 20:40 Супермен: Свободный Скачать торрент  

подождем!!!!!!!!!!!!!!!pb.wtf



21-05-2013 21:31 Супермен: Свободный Скачать торрент  

да норм перевод :good: это не такой уж шедевр что-бы очень ждать,если
хочется можно посмотреть в таком переводе многое не потеряешь.pb.wtf



21-05-2013 21:47 Супермен: Свободный Скачать торрент  

Whiteswan902 - исправляем:
1) Неполное тех. инфо. добавьте :

Код:

[b]Видео кодек:[/b]
[b]Аудио кодек: [/b]

2) Скриншоты не заявленного размера файла.
3) Выложите полное MediaInfo.


Как оформить правильно релиз в разделе Мультфильмы? pb.wtf



21-05-2013 22:05 Супермен: Свободный Скачать торрент  

исправлено pb.wtf



22-05-2013 02:30 Супермен: Свободный Скачать торрент  

А зачем столько очков раздаче навалили? pb.wtf



22-05-2013 04:26 Супермен: Свободный Скачать торрент  

вроде завтро будет дубляж pb.wtf



22-05-2013 10:48 Супермен: Свободный Скачать торрент  

"Супермен узнает о безжалостном злодее Брейниаке, который захватил и уменьшил столицу его родной планеты Криптон, город Кандор"
так вроде Криптон же взорвался или это уже не тот Супермен? чушь какая-тоpb.wtf



    Дорогой пользователь! Огромная просьба, поблагодарите релизера, оцените раздачу и оставьте свои комментарий, если Вы скачали Супермен: Свободный через торрент бесплатно! Внесите свою лепту в развитие PiratBit!
    Комментировать посты могут только пользователи прошедшие не сложную регистрацию
    Показать сообщения:    

    Супермен: Свободный через торрент
    Скачать бесплатно Супермен: Свободный
    Супермен: Свободный скачать торрент
    Супермен: Свободный смотреть онлайн
    Cкачать фильм Супермен: Свободный бесплатно
    Супермен: Свободный скачать торрент в хорошем качестве
    Супермен: Свободный смотреть онлайн бесплатно в хорошем качестве


    Вы не можете начинать темы
    Вы не можете отвечать на сообщения
    Вы не можете редактировать свои сообщения
    Вы не можете удалять свои сообщения
    Вы не можете голосовать в опросах
    Вы не можете прикреплять файлы к сообщениям
    Вы можете скачивать файлы