Ссылка на приватное зеркало нашего сайта всего за 1$. Внимание количество ограничено!!!

2 сезон

iTunes

1 сезон

1

iTunes

iTunes

iTunes

1 сезон

RePack

30

ИГРА 18+

pack

ВАЖНО

!!Акция!!

Alien_RageХит недели

RePack

MK11
pack

Забери бонус

RePack

jed

!!Акция!!

Alien_Rage

RePack

fifa19

RePack

Assassins Creed: Odyssey

RePack

NEED FOR SPEED™ PAYBACK

4 сезон

9 сезон

Бесстыжие 9 сезон

Все сериалы

все сериалы на PB.wtf

RePack

FAR CRY 5
  

Жизнь прекрасна / 50/50 (Джонатан Ливайн) [2011 г., драма, комедия, BDRip (720p)] pb.wtf

Жизнь прекрасна через торрент pb.wtf

Размер: 5.99 GB | Добавлен: 8 лет 8 мес. назад | Торрент скачан:62 раза
Скачать  

20-02-2012 18:19 Жизнь прекрасна Скачать торрент  

Жизнь прекрасна / 50/50

[font=cursive]Год выпуска: 2011
Страна: США / Summit Entertainment, Mandate Pictures, Point Grey Pictures
Жанр: драма, комедия
Продолжительность: 01:40:02
Перевод: Профессиональный (двухголосый, закадровый) [Ozz TV]

Режиссер: Джонатан Ливайн

В ролях: Джозеф Гордон-Левитт, Сет Роген, Анна Кендрик, Брайс Даллас Ховард, Анджелика Хьюстон, Серж Уд, Эндрю Эйрли, Мэтт Фрюэр, Филип Бейкер Холл, Донна Ямамото

Описание: Молодой преуспевающий журналист Адам готовится выпустить сенсационную статью о вулканах в Европе. Он не курит, не пьет, ведёт здоровый образ жизни, не водит машину потому что это опасно. Кроме того, у нашего героя есть всё для счастья: прекрасный дом, любимая девушка, хорошая работа.Но вот беда: наполеоновским планам помешали неожиданные боли в спине. После визита к врачу Адам узнает страшную правду: у него рак спинного мозга с редкой мутацией хромосом, не поддающейся лечению. Что делать? Как жить дальше? Как не сойти с ума? Можно ли выйти победителем в битве с медленной смертью?

Качество: BDRip (720p)
Формат: MKV
Видео кодек: MPEG4
Аудио кодек: AC3
Видео: 7737 kb/s, 1280x720 23.976 fps
Аудио#1: Russian: AC3, 192 kb/s (2 ch), 48.0 KHz
Аудио#2: English: AC3, 640 kb/s (6 ch), 48.0 KHz
Субтитры: Русские, английские

Релиз от:
Complete name : Zhizn.prekrasna.2011.P.BDRip.720p.IRONCLUB.mkv
Format : Matroska
Format version : Version 2
File size : 5.99 GiB
Duration : 1h 40mn
Overall bit rate : 8 572 Kbps
Movie name : 50/50 (2011) - Released by IronClub.TV
Encoded date : UTC 2012-02-19 22:32:15
Writing application : mkvmerge v4.9.1 ('Ich will') сборка от Jul 11 2011 23:53:15
Writing library : libebml v1.2.1 + libmatroska v1.1.1

Video
ID : 1
Format : AVC
Format/Info : Advanced Video Codec
Format profile : High@L4.1
Format settings, CABAC : Yes
Format settings, ReFrames : 9 frames
Codec ID : V_MPEG4/ISO/AVC
Duration : 1h 40mn
Bit rate : 7 737 Kbps
Width : 1 280 pixels
Height : 720 pixels
Display aspect ratio : 16:9
Frame rate : 23.976 fps
Color space : YUV
Chroma subsampling : 4:2:0
Bit depth : 8 bits
Scan type : Progressive
Bits/(Pixel*Frame) : 0.350
Stream size : 5.29 GiB (88%)
Title : 50/50 (2011) - Released by IronClub.TV
Writing library : x264 core 120 r2120 0c7dab9
Encoding settings : cabac=1 / ref=9 / deblock=1:-3:-2 / analyse=0x3:0x113 / me=tesa / subme=11 / psy=1 / psy_rd=0.94:0.07 / mixed_ref=1 / me_range=32 / chroma_me=1 / trellis=2 / 8x8dct=1 / cqm=0 / deadzone=21,11 / fast_pskip=0 / chroma_qp_offset=-3 / threads=12 / sliced_threads=0 / nr=0 / decimate=1 / interlaced=0 / bluray_compat=0 / constrained_intra=0 / bframes=6 / b_pyramid=2 / b_adapt=2 / b_bias=0 / direct=3 / weightb=1 / open_gop=0 / weightp=2 / keyint=250 / keyint_min=23 / scenecut=40 / intra_refresh=0 / rc_lookahead=120 / rc=2pass / mbtree=1 / bitrate=7737 / ratetol=1.0 / qcomp=0.55 / qpmin=0 / qpmax=69 / qpstep=4 / cplxblur=20.0 / qblur=0.5 / vbv_maxrate=40000 / vbv_bufsize=40000 / nal_hrd=none / ip_ratio=1.40 / aq=2:1.10 / zones=137615,143927,b=0.1
Language : English
Default : Yes
Forced : Yes

Audio #1
ID : 2
Format : AC-3
Format/Info : Audio Coding 3
Mode extension : CM (complete main)
Codec ID : A_AC3
Duration : 1h 40mn
Bit rate mode : Constant
Bit rate : 192 Kbps
Channel(s) : 2 channels
Channel positions : Front: L R
Sampling rate : 48.0 KHz
Bit depth : 16 bits
Compression mode : Lossy
Stream size : 137 MiB (2%)
Title : AC3 2.0 @ 192 kbps - P2, Ozz TV
Language : Russian
Default : Yes
Forced : Yes

Audio #2
ID : 3
Format : AC-3
Format/Info : Audio Coding 3
Mode extension : CM (complete main)
Codec ID : A_AC3
Duration : 1h 40mn
Bit rate mode : Constant
Bit rate : 640 Kbps
Channel(s) : 6 channels
Channel positions : Front: L C R, Side: L R, LFE
Sampling rate : 48.0 KHz
Bit depth : 16 bits
Compression mode : Lossy
Stream size : 458 MiB (7%)
Title : DD 5.1 @ 640 kbps
Language : English
Default : No
Forced : No

Text #1
ID : 4
Format : UTF-8
Codec ID : S_TEXT/UTF8
Codec ID/Info : UTF-8 Plain Text
Language : Russian
Default : No
Forced : No

Text #2
ID : 5
Format : UTF-8
Codec ID : S_TEXT/UTF8
Codec ID/Info : UTF-8 Plain Text
Language : English
Default : No
Forced : No

Menu
00:00:00.000 : en:Chapter 01
00:05:34.625 : en:Chapter 02
00:10:11.902 : en:Chapter 03
00:17:09.069 : en:Chapter 04
00:23:20.524 : en:Chapter 05
00:31:16.040 : en:Chapter 06
00:38:12.665 : en:Chapter 07
00:43:50.627 : en:Chapter 08
00:50:55.761 : en:Chapter 09
00:56:39.020 : en:Chapter 10
01:03:00.443 : en:Chapter 11
01:05:22.710 : en:Chapter 12
01:10:44.240 : en:Chapter 13
01:14:38.849 : en:Chapter 14
01:20:35.372 : en:Chapter 15
01:24:36.362 : en:Chapter 16
01:28:27.302 : en:Chapter 17
01:32:49.021 : en:Chapter 18
pb.wtf



Скачать Жизнь прекрасна через торрент http://piratpic.net/images/68872329170906753709.png Скачать фильм Жизнь прекрасна через торрент бесплантно в хорошем качестве Описание: Молодой преуспевающий журналист Адам готовится выпустить сенсационную статью о вулканах в Европе. Он не курит, не пьет, ведёт ... 5 10 8
Info! Золотая раздача, скачанное не засчитывается.
Торрент: Зарегистрирован [2012-02-20 18:19] · скачан: 62 раз
Статус: T временная
Размер: 5.99 GB
Как cкачать? Как скачать Жизнь прекрасна через торрент | qTorrent

% Раздел Тема Автор DL S | L
Фильмы 2011 [ 1.46 GB ] Жизнь прекрасна / У меня рак / 50/50 [2011 BDRip] [MVO] killermax2013 Скачать
1 | 0
Фильмы 2011 [ 1.46 GB ] Жизнь прекрасна / 50/50 [2011 HDRip ] ~Relizer~ Скачать
1 | 0
Фильмы 2011 [ 742 MB ] Жизнь прекрасна / У меня рак / 50/50 [2011 HDRip |лицензия|] markfiter Скачать
1 | 0
Фильмы [HD 720p, 1080p] (Хороший звук DUB, MVO) [ 8.55 GB ] Жизнь прекрасна / 50/50 [2011 BDRip + VO + DVO] ~Relizer~ Скачать
1 | 0
Фильмы (DVD фильмы) [ 6.04 GB ] Жизнь прекрасна / 50/50 [2011 биография DVD9] R5 voovaz Скачать
1 | 0
T Фильмы [HD 720p, 1080p] (Хороший звук DUB, MVO) [ 5.41 GB ] Жизнь прекрасна / У меня рак / 50/50 [2011 BDRip 720p] Shmel Скачать
1 | 0


Последний раз редактировалось: ~Relizer~ (2012-02-20 19:01), всего редактировалось 2 раз(а)

28-11-2019 20:33  

Отключить всю рекламу на сайте

20-02-2012 18:43 Жизнь прекрасна Скачать торрент  

1. Добавь частоту дискретизации аудио дорожек
2. Добавь MediaInfo (читай новости трекера, чтоб быть в курсе всех нововведений)

Для изменения статуса раздачи, после исправления уведомить в со ссылкой на раздачуpb.wtf



20-02-2012 19:01 Жизнь прекрасна Скачать торрент  

shuller понял буду добавлять инфу) (поправил)pb.wtf



    Дорогой пользователь! Огромная просьба, поблагодарите релизера, оцените раздачу и оставьте свои комментарий, если Вы скачали Жизнь прекрасна через торрент бесплатно! Внесите свою лепту в развитие PiratBit!
    Комментировать посты могут только пользователи прошедшие не сложную регистрацию
    Показать сообщения:    

    Жизнь прекрасна через торрент
    Скачать бесплатно Жизнь прекрасна
    Жизнь прекрасна скачать торрент
    Жизнь прекрасна смотреть онлайн
    Cкачать фильм Жизнь прекрасна бесплатно
    Жизнь прекрасна скачать торрент в хорошем качестве
    Жизнь прекрасна смотреть онлайн бесплатно в хорошем качестве


    Вы не можете начинать темы
    Вы не можете отвечать на сообщения
    Вы не можете редактировать свои сообщения
    Вы не можете удалять свои сообщения
    Вы не можете голосовать в опросах
    Вы не можете прикреплять файлы к сообщениям
    Вы можете скачивать файлы