Anonymous, доброй ночи, присоединяйтесь к нам в Telegram!, здесь всегда актуальный адрес сайта, оперативная поддержка и многое другое!

>

5.6

iTunes

7.4

iTunes

7.9

MVO

1

7.7

1 сезон

6.8

iTunes

7.3

1 сезон

13

6.7

1 сезон

8.3

RePack

30

ULTIMATE

pack

9.9

Лицензия

ВАЖНО

ИГРА 18+

pack

7.3

RePack

MK11

7.7

RePack

jed

7.8

RePack

fifa19

8.5

RePack

RDR2

RePack

NEED FOR SPEED™ PAYBACK

4 сезон

9 сезон

Бесстыжие 9 сезон

Все сериалы

все сериалы на PB.wtf

RePack

FAR CRY 5

Anonymous, доброй ночи, мы катастрофически не успеваем собрать деньги на оплату серверов, помогите нам пожалуйста 5,10,15р., для нас важна любая помощь . В качестве благодарности мы отключим Вам всю рекламу на сайте (укажите свой ник в строку Ваше имя)!

×
  
Magnet ссылка

(Rap) Стриж - Игристое - 2013, FLAC (tracks+.cue), lossless pb.wtf

через торрент pb.wtf

Размер: 293 MB | Добавлен: 8 лет 4 мес. назад | Торрент скачан:57 раз
Смотреть онлайн | Скачать    Ребята, помогите собрать деньги на оплату серверов!!!

22-05-2013 13:52 Скачать торрент  

Стриж / Игристое
Жанр:Rap
Страна-производитель диска: Россия
Год издания:2013
Издатель (лейбл):ООО "Никитин ЭмДиСИ"
Страна: Россия
Аудиокодек: FLAC (*.flac)
Тип рипа: tracks+.cue
Битрейд аудио: lossless
Продолжительность: 00:35:18
Наличие сканов в содержимом раздачи: Да
1 Интро
2 Игристое
3 Поговорим (при уч. Menace Society)
4 Луис Альберто
5 Поздно
6 Извозчик (при уч. П.Ё.С.)
7 Затёр
8 НХЛ
9 Календарь (при уч. Костя Бес)
10 Время (при уч. Даша Карамнова)
11 Скромная
12 Аутро
13. Затёр (version 2)
Exact Audio Copy V1.0 beta 3 from 29. August 2011

Отчёт EAC об извлечении, выполненном 28. апреля 2013, 7:21

Стриж / Игристое

Дисковод: Optiarc DVD RW AD-7280S Adapter: 0 ID: 0

Режим чтения : Достоверность
Использование точного потока : Да
Отключение кэша аудио : Да
Использование указателей C2 : Нет

Коррекция смещения при чтении : 48
Способность читать области Lead-in и Lead-out : Нет
Заполнение пропущенных сэмплов тишиной : Да
Удаление блоков с тишиной в начале и конце : Нет
При вычислениях CRC использовались нулевые сэмплы : Да
Интерфейс : Встроенный Win32-интерфейс для Win NT/2000
Обработка зазоров : Добавлено к предыдущему треку

Выходной формат : Пользовательский кодировщик
Выбранный битрейт : 128 kBit/s
Качество : Высокий
Добавление ID3-тега : Нет
Утилита сжатия : C:Program Files (x86)FLACflac.exe
Дополнительные параметры : -V -8 -T "Genre=%genre%" -T "Artist=%artist%" -T "Title=%title%" -T "Album=%albumtitle%" -T "Date=%year%" -T "Tracknumber=%tracknr%" -T "Comment=%comment%" %source%

TOC извлечённого CD

Трек | Старт | Длительность | Начальный сектор | Конечный сектор
---------------------------------------------------------------------
1 | 0:00.00 | 1:00.49 | 0 | 4548
2 | 1:00.49 | 3:19.31 | 4549 | 19504
3 | 4:20.05 | 3:16.70 | 19505 | 34274
4 | 7:37.00 | 2:12.26 | 34275 | 44200
5 | 9:49.26 | 3:00.18 | 44201 | 57718
6 | 12:49.44 | 2:41.37 | 57719 | 69830
7 | 15:31.06 | 3:21.32 | 69831 | 84937
8 | 18:52.38 | 3:07.19 | 84938 | 98981
9 | 21:59.57 | 2:41.17 | 98982 | 111073
10 | 24:40.74 | 3:14.42 | 111074 | 125665
11 | 27:55.41 | 3:05.17 | 125666 | 139557
12 | 31:00.58 | 1:00.00 | 139558 | 144057
13 | 32:00.58 | 3:17.22 | 144058 | 158854

Трек 1

Имя файла D:не удалять!!Стриж - Игристое�1 Интро.wav

Длина предзазора 0:00:02.00

Пиковый уровень 95.0 %
Скорость извлечения 1.6 X
Качество трека 100.0 %
CRC теста 5854328C
CRC копии 5854328C
Трек не обнаружен в базе AccurateRip
Копирование... OK

Трек 2

Имя файла D:не удалять!!Стриж - Игристое�2 Игристое.wav

Длина предзазора 0:00:02.00

Пиковый уровень 95.0 %
Скорость извлечения 2.3 X
Качество трека 100.0 %
CRC теста DDACE5E4
CRC копии DDACE5E4
Трек не обнаружен в базе AccurateRip
Копирование... OK

Трек 3

Имя файла D:не удалять!!Стриж - Игристое�3 Поговорим (при уч. Menace Society).wav

Длина предзазора 0:00:02.00

Пиковый уровень 95.0 %
Скорость извлечения 2.5 X
Качество трека 100.0 %
CRC теста 52D435E6
CRC копии 52D435E6
Трек не обнаружен в базе AccurateRip
Копирование... OK

Трек 4

Имя файла D:не удалять!!Стриж - Игристое�4 Луис Альберто.wav

Длина предзазора 0:00:02.00

Пиковый уровень 95.0 %
Скорость извлечения 2.5 X
Качество трека 100.0 %
CRC теста 32F60E71
CRC копии 32F60E71
Трек не обнаружен в базе AccurateRip
Копирование... OK

Трек 5

Имя файла D:не удалять!!Стриж - Игристое�5 Поздно.wav

Длина предзазора 0:00:02.00

Пиковый уровень 95.0 %
Скорость извлечения 2.4 X
Качество трека 99.9 %
CRC теста 286D7168
CRC копии 286D7168
Трек не обнаружен в базе AccurateRip
Копирование... OK

Трек 6

Имя файла D:не удалять!!Стриж - Игристое�6 Извозчик (при уч. П.Ё.С.).wav

Длина предзазора 0:00:02.00

Пиковый уровень 95.0 %
Скорость извлечения 2.9 X
Качество трека 100.0 %
CRC теста F111C569
CRC копии F111C569
Трек не обнаружен в базе AccurateRip
Копирование... OK

Трек 7

Имя файла D:не удалять!!Стриж - Игристое�7 Затёр.wav

Длина предзазора 0:00:02.00

Пиковый уровень 95.0 %
Скорость извлечения 3.1 X
Качество трека 100.0 %
CRC теста 25C1E59E
CRC копии 25C1E59E
Трек не обнаружен в базе AccurateRip
Копирование... OK

Трек 8

Имя файла D:не удалять!!Стриж - Игристое�8 НХЛ.wav

Длина предзазора 0:00:02.00

Пиковый уровень 95.0 %
Скорость извлечения 2.8 X
Качество трека 99.9 %
CRC теста 0A0AE1BA
CRC копии 0A0AE1BA
Трек не обнаружен в базе AccurateRip
Копирование... OK

Трек 9

Имя файла D:не удалять!!Стриж - Игристое�9 Календарь (при уч. Костя Бес).wav

Длина предзазора 0:00:02.00

Пиковый уровень 95.0 %
Скорость извлечения 3.3 X
Качество трека 100.0 %
CRC теста 1FDDCEF0
CRC копии 1FDDCEF0
Трек не обнаружен в базе AccurateRip
Копирование... OK

Трек 10

Имя файла D:не удалять!!Стриж - Игристое10 Время (при уч. Даша Карамнова).wav

Длина предзазора 0:00:02.00

Пиковый уровень 95.0 %
Скорость извлечения 3.1 X
Качество трека 99.9 %
CRC теста B7BA8980
CRC копии B7BA8980
Трек не обнаружен в базе AccurateRip
Копирование... OK

Трек 11

Имя файла D:не удалять!!Стриж - Игристое11 Скромная.wav

Длина предзазора 0:00:02.00

Пиковый уровень 95.0 %
Скорость извлечения 3.2 X
Качество трека 99.9 %
CRC теста 467DD41B
CRC копии 467DD41B
Трек не обнаружен в базе AccurateRip
Копирование... OK

Трек 12

Имя файла D:не удалять!!Стриж - Игристое12 Аутро.wav

Длина предзазора 0:00:02.00

Пиковый уровень 95.0 %
Скорость извлечения 2.8 X
Качество трека 100.0 %
CRC теста 4DF1035B
CRC копии 4DF1035B
Трек не обнаружен в базе AccurateRip
Копирование... OK

Трек 13

Имя файла D:не удалять!!Стриж - Игристое13 Затёр (version 2).wav

Длина предзазора 0:00:10.00

Пиковый уровень 95.0 %
Скорость извлечения 3.9 X
Качество трека 100.0 %
CRC теста 8E442AE4
CRC копии 8E442AE4
Трек не обнаружен в базе AccurateRip
Копирование... OK

Ни одного трека нет в базе AccurateRip

Ошибок не произошло

Конец отчёта

---- CUETools DB Plugin V2.1.3

[CTDB TOCID: giOfdvYepCFUvqwQRcEHHxKxjNU-] disk not present in database, Submit result: giOfdvYepCFUvqwQRcEHHxKxjNU- has been uploaded

==== Контрольная сумма отчёта 65EFA4F8E6646BBC502E50B2E78C2AF9AA545977D709A9BFE7CA99EB9B9DB5FE ====
«Компания Никитин» представляет новую, четвёртую работу Стрижа «Игристое». Стриж (наст. имя Роман Зубрилин) — российский рэп-исполнитель, ранее известный под псевдонимом «Зубрила», артист группировки «ЦАО Records». Свой путь в хип-хопе он начал в 2002 году, выпустив первый альбом «Вне закона». Сейчас Стриж уже взрослый артист, за 10 лет творческих метаний и экспериментов в РЭПе выработавший свой неповторимый стиль.
«Игристое» записан в новой для СТРИЖА манере, это небольшой эксперимент с чёрным юмором. В работе над битами приняли участие друзья Стрижа, известные битмэйкеры, такие, как SLIM (CENTR) и Ки4я Рекордс. Кроме того, в записи альбома принял участие Альтер Эго СТРИЖА – Зубрила, который напоминает о себе на протяжении всего альбома.
pb.wtf



Скачать через торрент https://pic1.kartinco.top/images/21/yefnlboeb2.jpg Скачать, смотреть онлайн бесплантно в хорошем качестве Треклист1 Интро2 Игристое3 Поговорим (при уч. Menace Society)4 Луис Альберто5 Поздно6 Извозчик (при уч. П.Ё.С.)7 Затёр8 НХЛ9 Календарь ... 10 10 5
Info! Золотая раздача, скачанное не засчитывается.
Торрент: Зарегистрирован [2013-05-22 13:52] · скачан: 57 раз
Статус: √ проверено
Размер: 293 MB
Как cкачать? Как скачать через торрент | UTorrent

% Раздел Тема Автор DL S | L
Classic Rock & Hard Rock (lossless) [ 2.68 GB ] EVANESCENCE Дискография - 1998-2007 FLAC lossless ser_1985 Скачать
1 | 0
Eurodance, Technopop, Disco (lossless) [ 1.86 GB ] Dr. Alban Студийные альбомы - 5CD [FLAC lossless] tauras Скачать
1 | 0
Action FPS (1st Person) [ 8.89 GB ] Star Wars: The Force Unleashed - Ultimate Sith Edition [Lossless Repack RU/EN] от Druid =Чувак= Скачать
1 | 0
Архив (Alternative, Punk, Independent) [ 1.74 GB ] Breaking Benjamin - Дискография - 2001-2009 FLAC lossless King_IS_Back Скачать
1 | 0
Гоночные симуляторы [ 3.18 GB ] Дальнобойщик​и 3: Золотое Издание [Lossless Repack RU] от R.G. Catalyst roman3310i Скачать
1 | 0
Архив (Многоканальная музыка и собственные оцифровки) [ 405 MB ] Black Sabbath -Heaven & hell - 1980 DTS lossless staryirocker Скачать
1 | 1
RTS (стратегии в реальном времени) [ 4.21 GB ] Command & Conquer 4: Tiberian Twilight [Lossless RePackRUEA] Alex_Zeyn Скачать
1 | 0

28-11-2019 20:33  

Отключить всю рекламу на сайте

    Дорогой пользователь! Огромная просьба, поблагодарите релизера, оцените раздачу и оставьте свои комментарий, если Вы скачали через торрент бесплатно!
    Комментировать посты могут только пользователи прошедшие не сложную регистрацию
    Показать сообщения:    

    через торрент
    Скачать бесплатно
    скачать торрент
    смотреть онлайн
    Cкачать фильм бесплатно
    скачать торрент в хорошем качестве
    смотреть онлайн бесплатно в хорошем качестве


    Вы не можете начинать темы
    Вы не можете отвечать на сообщения
    Вы не можете редактировать свои сообщения
    Вы не можете удалять свои сообщения
    Вы не можете голосовать в опросах
    Вы не можете прикреплять файлы к сообщениям
    Вы можете скачивать файлы