Ссылка на приватное зеркало нашего сайта всего за 1$. Внимание количество ограничено!!!

2 сезон

iTunes

1 сезон

1

2 сезон

2 сезон

iTunes

1 сезон

RePack

30

Ultimate

ВАЖНО

ИГРА 18+

pack

RePack

MK11
pack

Забери бонус

RePack

jed

!!Акция!!

Alien_Rage

RePack

fifa19

RePack

Assassins Creed: Odyssey

RePack

NEED FOR SPEED™ PAYBACK

4 сезон

9 сезон

Бесстыжие 9 сезон

Все сериалы

все сериалы на PB.wtf

RePack

FAR CRY 5
  

Любовь по-взрослому / This Is 40 (Джудд Апатоу) [2012 г., комедия, HDRip] DUB [ лицензия ] pb.wtf

Любовь по-взрослому через торрент pb.wtf

Размер: 1.36 GB | Добавлен: 7 лет 6 мес. назад | Торрент скачан:2082 раза
Скачать  

22-05-2013 15:47 Любовь по-взрослому Скачать торрент  

Любовь по-взрослому / This Is 40


  • Год выпуска:2012
  • Страна: США
  • Жанр:комедия
  • Продолжительность: 02:13:44
  • Перевод:Профессиональный (полное дублирование) Лицензия
    • Режиссер: Джудд Апатоу / Judd Apatow
    • Продюсер: Джудд Апатоу / Judd Apatow, Бэрри Мендел / Barry Mendel, Клэйтон Таунсенд / Clayton Townsend, Паула Пелл / Paula Pell, Лиза Ядавэйя / Lisa Yadavaia
    • Сценарий:Джудд Апатоу / Judd Apatow

  • В ролях:Пол Радд (Pete), Лесли Манн (Debbie), Мелисса МакКарти (Catherine), Джон Литгоу (Oliver), Меган Фокс (Desi), Альберт Брукс (Larry), Лина Данэм (Cat), Джейсон Сигел (Jason), Шарлин Йи (Jodi), Крис О’Дауд (Ronnie), Мод Апатоу (Sadie), Айрис Апатоу (Charlotte)
    • Описание:
      Спин-офф комедии «Немножко беременна» 2007 года. Взгляд на жизнь Пита и Дебби спустя несколько лет после событий первого фильма: к сложностям брака прибавляются финансовые проблемы.

  • Рейтинг
    kinopoisk.ru: 6.180 (3568)
    imdb.com: 6.20 (40 966)
    MPAA: R - Лицам до 17 лет обязательно присутствие взрослого
    • Качество: HDRip
    • Формат: AVI
    • Видео кодек: XviD
    • Аудио кодек: AC3
    • Видео: XviD, 720x304 (2.35:1), 23.976 fps, 1 068 Kbps
    • Аудио: AC3; 384 Kbps; CBR; 6 ch; 16 bit, 48 kHz

    General
    Complete name : D:ТорентыLubov.po.vzroslomu.2012.D.HDRip.1400MB.avi
    Format : AVI
    Format/Info : Audio Video Interleave
    File size : 1.36 GiB
    Duration : 2h 13mn
    Overall bit rate : 1 461 Kbps
    Writing application : VirtualDubMod 1.5.10.2 (build 2540/release)
    Writing library : VirtualDubMod build 2540/release

    Video
    ID : 0
    Format : MPEG-4 Visual
    Format profile : Advanced Simple@L5
    Format settings, BVOP : 2
    Format settings, QPel : No
    Format settings, GMC : No warppoints
    Format settings, Matrix : Default (MPEG)
    Codec ID : XVID
    Codec ID/Hint : XviD
    Duration : 2h 13mn
    Bit rate : 1 068 Kbps
    Width : 720 pixels
    Height : 304 pixels
    Display aspect ratio : 2.35:1
    Frame rate : 23.976 fps
    Color space : YUV
    Chroma subsampling : 4:2:0
    Bit depth : 8 bits
    Scan type : Progressive
    Compression mode : Lossy
    Bits/(Pixel*Frame) : 0.192
    Stream size : 966 MiB (69%)
    Writing library : XviD 1.2.1 (UTC 2008-12-04)

    Audio
    ID : 1
    Format : AC-3
    Format/Info : Audio Coding 3
    Mode extension : CM (complete main)
    Codec ID : 2000
    Duration : 2h 13mn
    Bit rate mode : Constant
    Bit rate : 384 Kbps
    Channel(s) : 6 channels
    Channel positions : Front: L C R, Side: L R, LFE
    Sampling rate : 48.0 KHz
    Bit depth : 16 bits
    Compression mode : Lossy
    Stream size : 367 MiB (26%)
    Alignment : Split accross interleaves
    Сценарий: Джудд Апатоу / Judd Apatow
    Продюсер: Джудд Апатоу / Judd Apatow, Бэрри Мендел / Barry Mendel, Клэйтон Таунсенд / Clayton Townsend, Паула Пелл / Paula Pell, Лиза Ядавэйя / Lisa Yadavaia
    Оператор: Фидон Папамайкл / Phedon Papamichael
    Композитор: Джон Брайон / Jon Brion

    Бюджет: $35 000 000
    Сборы в США: $67 544 505
    Сборы в России: $949 402
    Сборы в мире: $88 058 786

    Мировая премьера: 20 декабря 2012
    Релиз на DVD: 13 июня 2013, «Двадцатый Век Фокс СНГ»
    • Бен и Элисон, главные герои фильма «Немножко беременна» (2007), не появляются в этом как бы продолжении, но есть намеки на них. Картину Элисон можно заметить на стене, и Пит упоминает, что доставал кексы с марихуаной у Бена. Три других персонажа из фильма «Немножко беременна» (2007) также фигурируют в этом фильме: Джоди (Шарлин Йи) - ранее любезная наркоманка, а в этом фильме работник в магазине Дебби; Джейсон (Джейсон Сигел) - ранее лучший друг Бена, а теперь персональный тренер Дебби; Тим Бэгли просто продублировал свою роль акушера-гинеколога Пеллагрино.
    • Пит (Пол Радд) шутит в фильме, сравнивая свое сексуальное мастерство с мастерством Дэвида Швиммера (и Росса, персонажа Швиммера из сериала «Друзья», 1994-2004). Так он четко дает понять, что он думает, будто и Пит, и Швиммер не очень хороши в постели. Пресс-секретарь Швиммера сказала в газете Chicago Sun-Times, что Швиммера не уведомляли заранее о том, согласен ли он быть объектом этой шутки. Джудд Апатоу пояснил, что не имел в виду ничего оскорбительного. Пол Радд же был частым гостем на съемочной площадке сериала «Друзья» (1994-2004) в течении последних двух сезонов шоу.
    • Сэди (Мод Апатоу) является большой поклонницей сериала «Остаться в живых» (2004-2010), и Джека (Мэттью Фокса) неоднократно показывают на экране. В фильме «Немножко беременна» (2007) Бен очень пренебрежительно относится к Мэттью Фоксу, говоря, что в нем нет ничего особенного.


    Скриншоты


    © Оформление by Vetalpb.wtf



  • Скачать Любовь по-взрослому через торрент http://i47.fastpic.ru/big/2013/0505/55/ff0fbc48f98fa52c0fc275351a996d55.png Скачать фильм Любовь по-взрослому через торрент бесплантно в хорошем качестве Описание:Спин-офф комедии «Немножко беременна» 2007 года. Взгляд на жизнь Пита и Дебби спустя несколько лет после событий первого фильма: к ... 9.2 10 35
    Info! Золотая раздача, скачанное не засчитывается.
    Торрент: Зарегистрирован [2013-05-22 15:47] · скачан: 2 082 раз
    Статус: √ проверено
    Размер: 1.36 GB
    Как cкачать? Как скачать Любовь по-взрослому через торрент | qTorrent

    % Раздел Тема Автор DL S | L
    Фильмы [HD 720p, 1080p] (Хороший звук DUB, MVO) [ 12.66 GB ] Любовь по-взрослому / This Is 40 [2012 BDRip 1080p + Оригинал] Trava-HD Скачать
    1 | 0
    Фильмы 2012 [ 2.18 GB ] Любовь по-взрослому / This Is 40 [2012 BDRip] лицензия diletant Скачать
    1 | 0
    Фильмы [HD 720p, 1080p] (Хороший звук DUB, MVO) [ 6.54 GB ] Любовь по-взрослому / This Is 40 [2012 BDRip 720p лицензия] Lyfe Скачать
    1 | 0

    28-11-2019 20:33  

    Отключить всю рекламу на сайте

      Дорогой пользователь! Огромная просьба, поблагодарите релизера, оцените раздачу и оставьте свои комментарий, если Вы скачали Любовь по-взрослому через торрент бесплатно! Внесите свою лепту в развитие PiratBit!
      Комментировать посты могут только пользователи прошедшие не сложную регистрацию
      Показать сообщения:    

      Любовь по-взрослому через торрент
      Скачать бесплатно Любовь по-взрослому
      Любовь по-взрослому скачать торрент
      Любовь по-взрослому смотреть онлайн
      Cкачать фильм Любовь по-взрослому бесплатно
      Любовь по-взрослому скачать торрент в хорошем качестве
      Любовь по-взрослому смотреть онлайн бесплатно в хорошем качестве


      Вы не можете начинать темы
      Вы не можете отвечать на сообщения
      Вы не можете редактировать свои сообщения
      Вы не можете удалять свои сообщения
      Вы не можете голосовать в опросах
      Вы не можете прикреплять файлы к сообщениям
      Вы можете скачивать файлы