Ссылка на приватное зеркало нашего сайта всего за 1$. Внимание количество ограничено!!!

2 сезон

iTunes

1 сезон

1

2 сезон

2 сезон

iTunes

1 сезон

RePack

30

Новинка

ВАЖНО

ИГРА 18+

pack

RePack

MK11
pack

Забери бонус

RePack

jed

!!Акция!!

Alien_Rage

RePack

fifa19

RePack

Assassins Creed: Odyssey

RePack

NEED FOR SPEED™ PAYBACK

4 сезон

9 сезон

Бесстыжие 9 сезон

Все сериалы

все сериалы на PB.wtf

RePack

FAR CRY 5
  

Доктор кто/Doctor Who/7 сезон/Серии: 1-14(14) (Грем Харпер, Колин Тига, Адам Смит) [2012-2013 г., фантастика, семейный, драма, приключения, WEB-DLRip, Профессиональный (многоголосый закадровый)BaibaKo] pb.wtf

Доктор кто через торрент pb.wtf

Размер: 8.44 GB | Добавлен: 7 лет 6 мес. назад | Торрент скачан:182 раза
Скачать  

23-05-2013 17:11 Доктор кто Скачать торрент  

Доктор кто/Doctor Who
Год выпуска: 2012-2013
Страна: Великобритания
Жанр: фантастика, семейный, драма, приключения,
Продолжительность: 00:45:00
Перевод: Профессиональный (многоголосый закадровый)BaibaKo
Тип релиза: Пиратка
Субтитры: Нет
____________________________
Режиссер: Грем Харпер Колин Тига Адам Смит

Продюсер:Расселл Т. Дейвис, Джули Гарднер, Фил Коллинсон
Сценарий: Стивен Моффат,Крис Чибнелл,Тоби Уитхауз
В ролях: Мэтт Смит, Карен Гиллан, Артур Дарвилл и др.,




Описание: Доктора похищают его заклятые враги и вынуждают взяться за невероятную миссию: войти в место, куда боятся входить все далеки — прибежище. Прибежище — планета-тюрьма для удержания самых безумных и страшных далеков, а Доктор и Понды должны найти выход оттуда. Но отношения Эми и Рори переживают кризис, и, пока приближается армия сумасшедших далеков, только Доктор может спасти и жизни, и брак Пондов.
Доктор возвращается, и лишь для того, чтобы "скрасить" жизнь Пондам. Путешествуя в синей-синей будке с безумным стариком, Эми и Рори ждут незабываемые приключения в пространстве и времени.
В этом путешествии их ожидает неожиданное вторжение на Землю. Они побывают на космическом корабле полном динозавров, у которого есть все шансы врезаться в Землю. Окажутся на Диком Диком Западе и похитят старейшего врага Доктора.
Оказавшись на улицах Манхэттена, где их поджидают Плачущие Ангелы, Доктор может потерять нечто ценное, казалось бы, обретенное вновь...
Что ждет героев на их пути? Смотрите в новом сезоне!

____________________________
Качество: WEB-DLRip
Формат: AVI
Видео кодек: XviD
Аудио кодек: MP3
Видео: XviD, 720x400, 25 fps, 1501 kbps, 0.210 bit/pixel
Аудио#1(rus): MP3 , 48 kHz, 2 ch, ~192 kbps
Аудио#2(eng): MP3 , 48 kHz, 2 ch, ~192 kbps
скриншот   скриншот   скриншот   скриншот   скриншот   скриншот   скриншот   скриншот  
1. Прибежище далеков (Asylum of the Daleks)
2. Динозавры на космическом корабле (Dinosaurs on a Spaceship)
3. Город под названием Милосердие (A Town Called Mercy)
4. Сила трёх (The Power of Three)
5. Ангелы захватывают Манхэттен (The Angels Take Manhattan)
6. Снеговики (The Snowmen)
7. Колокола Святого Иоанна (The Bells of St John)
8. Кольца Акатена (The Rings of Akhaten)
9. Холодная война (Cold War)
10. Прячься (Hide)
11. Путешествие к центру ТАРДИС (Journey to the Centre of the TARDIS)
12. Малиновый ужас (The Crimson Horror)
13. Серебряный кошмар (Nightmare in Silver)
14. Имя Доктора (The Name of the Doctor)
Видео
Идентификатор : 0
Формат : MPEG-4 Visual
Профиль формата : Advanced Simple@L5
Параметр BVOP формата : 2
Параметр QPel формата : Нет
Параметр GMC формата : Без точки перехода
Параметр матрицы формата : Default (H.263)
Идентификатор кодека : XVID
Идентификатор кодека/Подсказка : XviD
Продолжительность : 48 м.
Битрейт : 1501 Кбит/сек
Ширина : 720 пикселей
Высота : 400 пикселей
Соотношение сторон : 16:9
Частота кадров : 25,000 кадров/сек
Цветовое пространство : YUV
Субдискретизация насыщенности : 4:2:0
Битовая глубина : 8 бит
Тип развёртки : Прогрессивная
Метод сжатия : С потерями
Бит/(Пиксели*Кадры) : 0.208
Размер потока : 525 Мбайт (79%)
Библиотека кодирования : XviD 1.2.1 (UTC 2008-12-04)

Аудио #1
Идентификатор : 1
Формат : MPEG Audio
Версия формата : Version 1
Профиль формата : Layer 3
Режим : Joint stereo
Расширение режима : MS Stereo
Идентификатор кодека : 55
Идентификатор кодека/Подсказка : MP3
Продолжительность : 48 м.
Вид битрейта : Постоянный
Битрейт : 192 Кбит/сек
Каналы : 2 канала
Частота : 48,0 КГц
Метод сжатия : С потерями
Размер потока : 67,2 Мбайт (10%)
Выравнивание : Соединение по промежуткам
Продолжительность промежутка : 160 мс. (4,00 видеокадра)
Время предзагрузки промежутка : 216 мс.
Заголовок : Doctor.Who.s07e01.Asylum.Of.The.Daleks.WEB-DLRip.x264.Rus.Eng.BaibaKo.tv.mp4_track_1_russian_audio
Библиотека кодирования : LAME3.99r
Настройки программы : -m j -V 4 -q 2 -lowpass 18.6 -b 192

Аудио #2
Идентификатор : 2
Формат : MPEG Audio
Версия формата : Version 1
Профиль формата : Layer 3
Режим : Joint stereo
Расширение режима : MS Stereo
Идентификатор кодека : 55
Идентификатор кодека/Подсказка : MP3
Продолжительность : 48 м.
Вид битрейта : Постоянный
Битрейт : 192 Кбит/сек
Каналы : 2 канала
Частота : 48,0 КГц
Метод сжатия : С потерями
Размер потока : 67,2 Мбайт (10%)
Выравнивание : Соединение по промежуткам
Продолжительность промежутка : 160 мс. (4,00 видеокадра)
Время предзагрузки промежутка : 216 мс.
Заголовок : Doctor.Who.s07e01.Asylum.Of.The.Daleks.WEB-DLRip.x264.Rus.Eng.BaibaKo.tv.mp4_track_2_english_audio
Библиотека кодирования : LAME3.99r
Настройки программы : -m j -V 4 -q 2 -lowpass 18.6 -b 192

ПРИЯТНОГО ПРОСМОТРА!!!™Оформление by fiskerpb.wtf



Скачать Доктор кто через торрент http://pic.kartinco.top/images/2/k66xecsub2.jpg Скачать фильм Доктор кточерез торрент бесплантно в хорошем качестве Описание: Доктора похищают его заклятые враги и вынуждают взяться за невероятную миссию: войти в место, куда боятся входить все далеки — ... 9.9 10 15
Info! Золотая раздача, скачанное не засчитывается.
Торрент: Зарегистрирован [2013-05-23 17:11] · скачан: 182 раз
Статус: √ проверено
Размер: 8.44 GB
Как cкачать? Как скачать Доктор кто через торрент | qTorrent

28-11-2019 20:33  

Отключить всю рекламу на сайте

    Дорогой пользователь! Огромная просьба, поблагодарите релизера, оцените раздачу и оставьте свои комментарий, если Вы скачали Доктор кто через торрент бесплатно! Внесите свою лепту в развитие PiratBit!
    Комментировать посты могут только пользователи прошедшие не сложную регистрацию
    Показать сообщения:    

    Доктор кто через торрент
    Скачать бесплатно Доктор кто
    Доктор кто скачать торрент
    Доктор кто смотреть онлайн
    Cкачать фильм Доктор кто бесплатно
    Доктор кто скачать торрент в хорошем качестве
    Доктор кто смотреть онлайн бесплатно в хорошем качестве


    Вы не можете начинать темы
    Вы не можете отвечать на сообщения
    Вы не можете редактировать свои сообщения
    Вы не можете удалять свои сообщения
    Вы не можете голосовать в опросах
    Вы не можете прикреплять файлы к сообщениям
    Вы можете скачивать файлы