1 сезон

1 сезон

iTunes

1

КиноПоиск HD

Кинопоиск HD

iTunes

13

1 сезон

RePack

30

Новинка

ВАЖНО

ИГРА 18+

pack

RePack

MK11
pack

Легкие деньги

RePack

jed

RePack

fifa19

RePack

RDR2

RePack

NEED FOR SPEED™ PAYBACK

4 сезон

9 сезон

Бесстыжие 9 сезон

Все сериалы

все сериалы на PB.wtf

RePack

FAR CRY 5
  
Magnet ссылка

Море Солтона / The Salton Sea (Ди Джей Карузо) [2002 г., триллер, драма, криминал, детектив, HDTVRip, Профессиональный + Оригинал] pb.wtf

Море Солтона через торрент pb.wtf

Размер: 2.18 GB | Добавлен: 7 лет 10 мес. назад | Торрент скачан:109 раз
Скачать  

25-05-2013 05:31 Море Солтона Скачать торрент  

Название: Море Солтона
Оригинальное название: The Salton Sea
Год выпуска: 2002
Страна: США
Производство: Castle Rock Entertainment, Darkwoods Productions
Жанр: триллер, драма, криминал, детектив
Продолжительность: 01:43:25
Перевод: Профессиональный многоголосый + Оригинал

Режиссер: Ди Джей Карузо
Продюссер: Кен Агуадо, Фрэнк Дарабонт, Эрик Ла Салль
Сценарий: Тони Гэйтон
Бюджет: $18 000 000
Премьера в мире: 12 февраля 2002



В ролях: Вэл Килмер, Винсент Д’Онофрио, Адам Голдберг, Луис Гузман, Даг Хатчисон, Энтони ЛаПалья, Гленн Пламмер, Питер Сарсгаард, Дебора Кара Ангер, Чандра Уэст,

Описание: После убийства его возлюбленной жены Фрэнк Паркер погружается в мир, в котором все обман. Сменив имя и внешность, он начинает опасное путешествие в преступном мире, чтобы найти убийцу жены, который напрямую связан с самыми опасными преступлениями в городе...

Доп. информация: Готовясь к своим ролям, Вэл Килмер и Дебора Унгер посещали реабилитационный центр для наркоманов, а Питер Сарсгаард в течение трех месяцев отращивал волосы и посещал собрания анонимных наркоманов.



Сэмпл / Трейлер

  • Качество: HDTVRip
  • Формат: AVI
  • Видео кодек: XviD
  • Аудио кодек: AC3
  • Видео: MPEG4, XviD, 720x400 (16:9), 29.970 fps, 2 097 Kbps (0.243 bit/pixel)
  • Аудио#1: AC-3, 48.0 KHz, 6 ch, 448 Kbps, CBR (Russian)
  • Аудио#2: AC-3, 48.0 KHz, 6 ch, 448 Kbps, CBR (English)
    Формат : AVI
    Формат/Информация : Audio Video Interleave
    Профиль формата : OpenDML
    Размер файла : 2,18 Гбайт
    Продолжительность : 1 ч. 43 м.
    Общий поток : 3016 Кбит/сек
    Название фильма : The Salton Sea.XviD.AC3.kep
    Жанр : Thriller, Drama, Crime, Mystery
    Программа кодирования : VirtualDubModRus 1.5.10.2 (build 2542/release)
    Формат оригинала/Имя : Movie
    Правообладатель : Rip prepared for piratbit.cc
    Примечание : Rip ot kep

    Видео
    Идентификатор : 0
    Формат : MPEG-4 Visual
    Профиль формата : Advanced Simple@L5
    Параметр BVOP формата : 1
    Параметр QPel формата : Нет
    Параметр GMC формата : Без точки перехода
    Параметр матрицы формата : Default (MPEG)
    Идентификатор кодека : XVID
    Идентификатор кодека/Подсказка : XviD
    Продолжительность : 1 ч. 43 м.
    Битрейт : 2097 Кбит/сек
    Ширина : 720 пикселей
    Высота : 400 пикселей
    Соотношение сторон : 16:9
    Частота кадров : 29,970 кадров/сек
    Цветовое пространство : YUV
    Субдискретизация насыщенности : 4:2:0
    Битовая глубина : 8 бит
    Тип развёртки : Прогрессивная
    Метод сжатия : С потерями
    Бит/(Пиксели*Кадры) : 0.243
    Размер потока : 1,51 Гбайт (70%)
    Библиотека кодирования : XviD 1.2.1 (UTC 2008-12-04)

    Аудио #1
    Идентификатор : 1
    Формат : AC-3
    Формат/Информация : Audio Coding 3
    Расширение режима : CM (complete main)
    Параметр Endianness формата : Big
    Идентификатор кодека : 2000
    Продолжительность : 1 ч. 43 м.
    Вид битрейта : Постоянный
    Битрейт : 448 Кбит/сек
    Каналы : 6 каналов
    Расположение каналов : Front: L C R, Side: L R, LFE
    Частота : 48,0 КГц
    Битовая глубина : 16 бит
    Метод сжатия : С потерями
    Размер потока : 331 Мбайт (15%)
    Выравнивание : Разделение по промежуткам
    Продолжительность промежутка : 33 мс. (1,00 видеокадр)
    Время предзагрузки промежутка : 500 мс.

    Аудио #2
    Идентификатор : 2
    Формат : AC-3
    Формат/Информация : Audio Coding 3
    Расширение режима : CM (complete main)
    Параметр Endianness формата : Big
    Идентификатор кодека : 2000
    Продолжительность : 1 ч. 43 м.
    Вид битрейта : Постоянный
    Битрейт : 448 Кбит/сек
    Каналы : 6 каналов
    Расположение каналов : Front: L C R, Side: L R, LFE
    Частота : 48,0 КГц
    Битовая глубина : 16 бит
    Метод сжатия : С потерями
    Размер потока : 331 Мбайт (15%)
    Выравнивание : Разделение по промежуткам
    Продолжительность промежутка : 33 мс. (1,00 видеокадр)
    Время предзагрузки промежутка : 500 мс.
    скриншот   скриншот   скриншот   скриншот   скриншот  pb.wtf



  • Скачать Море Солтона через торрент http://i2.imageban.ru/out/2013/05/25/6ef1a8fc593b170155c7120fbf36b61e.png Скачать фильм Море Солтона через торрент бесплантно в хорошем качестве Описание: После убийства его возлюбленной жены Фрэнк Паркер погружается в мир, в котором все обман. Сменив имя и внешность, он начинает ... 10 10 8
    Info! Золотая раздача, скачанное не засчитывается.
    Торрент: Зарегистрирован [2013-05-25 05:31] · скачан: 109 раз
    Статус: √ проверено
    Размер: 2.18 GB
    Как cкачать? Как скачать Море Солтона через торрент | UTorrent

    % Раздел Тема Автор DL S | L
    Фильмы 2001-2005 [ 1.45 GB ] Море Солтона / The Salton Sea [2002 HDRip ] bober100 Скачать
    1 | 0


    Последний раз редактировалось: кэп (2013-05-25 18:15), всего редактировалось 2 раз(а)

    28-11-2019 20:33  

    Отключить всю рекламу на сайте

    25-05-2013 07:39 Море Солтона Скачать торрент  

    Откуда фильма такая????????????????????????pb.wtf



      Дорогой пользователь! Огромная просьба, поблагодарите релизера, оцените раздачу и оставьте свои комментарий, если Вы скачали Море Солтона через торрент бесплатно! Внесите свою лепту в развитие PiratBit!
      Комментировать посты могут только пользователи прошедшие не сложную регистрацию
      Показать сообщения:    

      Море Солтона через торрент
      Скачать бесплатно Море Солтона
      Море Солтона скачать торрент
      Море Солтона смотреть онлайн
      Cкачать фильм Море Солтона бесплатно
      Море Солтона скачать торрент в хорошем качестве
      Море Солтона смотреть онлайн бесплатно в хорошем качестве


      Вы не можете начинать темы
      Вы не можете отвечать на сообщения
      Вы не можете редактировать свои сообщения
      Вы не можете удалять свои сообщения
      Вы не можете голосовать в опросах
      Вы не можете прикреплять файлы к сообщениям
      Вы можете скачивать файлы