2 сезон

iTunes

MVO

1

2 сезон

iTunes

iTunes

1 сезон

RePack

30

Новинка

ВАЖНО

ИГРА 18+

pack

RePack

MK11
pack

Легкие деньги

RePack

jed

RePack

fifa19

RePack

RDR2

RePack

NEED FOR SPEED™ PAYBACK

4 сезон

9 сезон

Бесстыжие 9 сезон

Все сериалы

все сериалы на PB.wtf

RePack

FAR CRY 5

Anonymous, доброе утро, мы не успеваем собрать деньги на оплату серверов за декабрь и январь, помогите нам пожалуйста в это трудное время. В качестве благодарности мы отключим Вам всю рекламу на сайте (укажите свой ник в строку Ваше имя)!

×
  
Magnet ссылка

Прометей в 3D / Prometheus in 3D (Ридли Скотт) [2012 г., фантастика, детектив, приключенияслова, BDRip 1080p, Дубляж, лицензия] Анаглиф (Дюбуа) pb.wtf

Прометей в 3D через торрент pb.wtf

Размер: 8.47 GB | Добавлен: 7 лет 8 мес. назад | Торрент скачан:223 раза
Скачать  

25-05-2013 16:21 Прометей в 3D Скачать торрент  

Прометей в 3D / Prometheus in 3D
Год выпуска: 2012
Страна: США
Жанр: фантастика, детектив, приключенияслова,
Продолжительность: 02:03:46
Перевод: Дубляж, Лицензия
Субтитры:
#1 - Русские
#2 - Украинские
#3 - English

Режиссер: Ридли Скотт
Продюссер: Дэвид Гайлер, Уолтер Хилл, Ридли Скотт
Сценарий: Джон Спэйтс, Дэймон Линделоф, Дэн О’Бэннон

Бюджет: $130 000 000
Премьера в мире: 30 мая 2012

IMDB 7.20 (272 892)



В ролях: Нуми Рапас, Майкл Фассбендер, Шарлиз Терон, Идрис Эльба, Гай Пирс, Логан Маршалл-Грин, Шон Харрис, Рейф Сполл, Иман Эллиотт, Бенедикт Вонг,
Роли дублировали:Ольга Сирина, Илья Исаев, Татьяна Шитова, Александр Груздев, Александр Пожаров,

Описание: В поисках сакрального знания группа ученых отправляется в самые темные и неизведанные чертоги вселенной. Именно там, в отдаленных мирах, находясь на пределе своих умственных и физических возможностей, им предстоит вступить в безжалостную схватку за будущее всего человечества...

Доп. информация: CROP Формат 3D: Анаглиф (Дюбуа)



Качество: BDRip 1080p
Формат: MKV
Видео кодек: H.264
Аудио кодек: AC3
Видео: 1920 х 1072 / 23,976 fps, (16:9) / 8002 Kbps, (0.162 bit/pixel)
Аудио#1: Rus, AC-3, 6 каналов, 640 Кбит/сек, 48,0 КГц , Дубляж (BD3D EUR)
Аудио#2: Ukr, AC-3, 6 каналов, 448 Кбит/сек, 48,0 КГц , Дубляж (BD3D EUR)
Аудио#3: Eng, AC-3, 6 каналов, 448 Кбит/сек, 48,0 КГц , Original



скриншот   скриншот   скриншот   скриншот   скриншот   скриншот  
Общее
Уникальный идентификатор : 231705808238035223457611804895131957519 (0xAE50EA5A1B20579A81367DD2F813790F)
Полное имя : E:Prometheus(3D)2012(Anaglyph_Dubois).(Crop).mkv
Формат : Matroska
Размер файла : 8,47 Гбайт
Продолжительность : 2 ч. 3 м.
Общий поток : 9793 Кбит/сек
Название фильма : Prometheus(3D)2012(Anaglyph_Dubois)
Дата кодирования : UTC 2013-05-24 07:56:19
Программа кодирования : mkvmerge v4.0.0 ('The Stars were mine') сборка от Jun 6 2010 16:18:42
Библиотека кодирования : libebml v1.0.0 + libmatroska v1.0.0

Видео
Идентификатор : 1
Формат : AVC
Формат/Информация : Advanced Video Codec
Профиль формата : Baseline@L4.0
Параметр CABAC формата : Нет
Параметр ReFrames формата : 4 кадры
Идентификатор кодека : V_MPEG4/ISO/AVC
Продолжительность : 2 ч. 3 м.
Битрейт : 8002 Кбит/сек
Ширина : 1920 пикс.
Высота : 1072 пикс.
Соотношение сторон : 16:9
Частота кадров : 23,976 кадр/сек
Цветовое пространство : YUV
Подвыборка цветности : 4:2:0
Битовая глубина : 8 бит
Тип развёртки : Прогрессивная
Бит/(Пиксели*Кадры) : 0.162
Размер потока : 6,80 Гбайт (80%)
Заголовок : Prometheus(3D)2012(Anaglyph_Dubois).(Crop).mkv
Библиотека кодирования : x264 core 120
Настройки программы : cabac=0 / ref=4 / deblock=0:0:0 / analyse=0:0 / me=dia / subme=0 / psy=1 / psy_rd=1.00:0.00 / mixed_ref=0 / me_range=16 / chroma_me=1 / trellis=0 / 8x8dct=0 / cqm=0 / deadzone=21,11 / fast_pskip=1 / chroma_qp_offset=0 / threads=3 / sliced_threads=0 / nr=0 / decimate=1 / interlaced=0 / bluray_compat=0 / constrained_intra=0 / bframes=0 / weightp=0 / keyint=240 / keyint_min=24 / scenecut=0 / intra_refresh=0 / rc=abr / mbtree=0 / bitrate=8002 / ratetol=1.0 / qcomp=0.60 / qpmin=3 / qpmax=69 / qpstep=4 / ip_ratio=1.40 / aq=0
Язык : English
Основные цвета : BT.709-5, BT.1361, IEC 61966-2-4, SMPTE RP177
Характеристики трансфера : BT.709-5, BT.1361
Коэффициенты матрицы : BT.709-5, BT.1361, IEC 61966-2-4 709, SMPTE RP177

Аудио #1
Идентификатор : 2
Формат : AC-3
Формат/Информация : Audio Coding 3
Расширение режима : CM (complete main)
Идентификатор кодека : A_AC3
Продолжительность : 2 ч. 3 м.
Вид битрейта : Постоянный
Битрейт : 640 Кбит/сек
Канал(ы) : 6 канала(ов)
Расположение каналов : Front: L C R, Side: L R, LFE
Частота : 48,0 КГц
Битовая глубина : 16 бит
Метод сжатия : С потерями
Размер потока : 567 Мбайт (7%)
Заголовок : Дубляж (BD3D EUR)
Язык : Russian

Аудио #2
Идентификатор : 3
Формат : AC-3
Формат/Информация : Audio Coding 3
Расширение режима : CM (complete main)
Идентификатор кодека : A_AC3
Продолжительность : 2 ч. 3 м.
Вид битрейта : Постоянный
Битрейт : 448 Кбит/сек
Канал(ы) : 6 канала(ов)
Расположение каналов : Front: L C R, Side: L R, LFE
Частота : 48,0 КГц
Битовая глубина : 16 бит
Метод сжатия : С потерями
Размер потока : 397 Мбайт (5%)
Заголовок : Дубляж (BD3D EUR)
Язык : Ukrainian

Аудио #3
Идентификатор : 4
Формат : AC-3
Формат/Информация : Audio Coding 3
Расширение режима : CM (complete main)
Идентификатор кодека : A_AC3
Продолжительность : 2 ч. 3 м.
Вид битрейта : Постоянный
Битрейт : 640 Кбит/сек
Канал(ы) : 6 канала(ов)
Расположение каналов : Front: L C R, Side: L R, LFE
Частота : 48,0 КГц
Битовая глубина : 16 бит
Метод сжатия : С потерями
Размер потока : 567 Мбайт (7%)
Заголовок : Original
Язык : English

Текст #1
Идентификатор : 5
Формат : UTF-8
Идентификатор кодека : S_TEXT/UTF8
Идентификатор кодека/Информация : UTF-8 Plain Text
Заголовок : Форсированные
Язык : Russian

Текст #2
Идентификатор : 6
Формат : UTF-8
Идентификатор кодека : S_TEXT/UTF8
Идентификатор кодека/Информация : UTF-8 Plain Text
Заголовок : Полные
Язык : Russian

Текст #3
Идентификатор : 7
Формат : UTF-8
Идентификатор кодека : S_TEXT/UTF8
Идентификатор кодека/Информация : UTF-8 Plain Text
Заголовок : Форсированные
Язык : Ukrainian

Текст #4
Идентификатор : 8
Формат : UTF-8
Идентификатор кодека : S_TEXT/UTF8
Идентификатор кодека/Информация : UTF-8 Plain Text
Заголовок : Полные
Язык : Ukrainian

Текст #5
Идентификатор : 9
Формат : UTF-8
Идентификатор кодека : S_TEXT/UTF8
Идентификатор кодека/Информация : UTF-8 Plain Text
Заголовок : Full
Язык : English

Текст #6
Идентификатор : 10
Формат : UTF-8
Идентификатор кодека : S_TEXT/UTF8
Идентификатор кодека/Информация : UTF-8 Plain Text
Заголовок : SDH
Язык : English

Текст #7
Идентификатор : 11
Формат : UTF-8
Идентификатор кодека : S_TEXT/UTF8
Идентификатор кодека/Информация : UTF-8 Plain Text
Заголовок : Комментарии режиссёра (Ридли Скотта)
Язык : Russian

Текст #8
Идентификатор : 12
Формат : UTF-8
Идентификатор кодека : S_TEXT/UTF8
Идентификатор кодека/Информация : UTF-8 Plain Text
Заголовок : Комментарии сценаристов (Джона Спэйтса и Дэймона Линделофф)
Язык : Russian


Прометей скачать торрент


pb.wtf



Скачать Прометей в 3D через торрент http://i42.fastpic.ru/big/2012/0927/30/7e493a1ea08c08b9ff26e2ae8c7aa930.jpg Скачать фильм Прометей в 3D через торрент бесплантно в хорошем качестве Описание: В поисках сакрального знания группа ученых отправляется в самые темные и неизведанные чертоги вселенной. Именно там, в отдаленных ... 9.3 10 14
Info! Золотая раздача, скачанное не засчитывается.
Торрент: Зарегистрирован [2013-05-25 16:21] · скачан: 223 раз
Статус: √ проверено
Размер: 8.47 GB
Как cкачать? Как скачать Прометей в 3D через торрент | UTorrent

28-11-2019 20:33  

Отключить всю рекламу на сайте

    Дорогой пользователь! Огромная просьба, поблагодарите релизера, оцените раздачу и оставьте свои комментарий, если Вы скачали Прометей в 3D через торрент бесплатно! Внесите свою лепту в развитие PiratBit!
    Комментировать посты могут только пользователи прошедшие не сложную регистрацию
    Показать сообщения:    

    Прометей в 3D через торрент
    Скачать бесплатно Прометей в 3D
    Прометей в 3D скачать торрент
    Прометей в 3D смотреть онлайн
    Cкачать фильм Прометей в 3D бесплатно
    Прометей в 3D скачать торрент в хорошем качестве
    Прометей в 3D смотреть онлайн бесплатно в хорошем качестве


    Вы не можете начинать темы
    Вы не можете отвечать на сообщения
    Вы не можете редактировать свои сообщения
    Вы не можете удалять свои сообщения
    Вы не можете голосовать в опросах
    Вы не можете прикреплять файлы к сообщениям
    Вы можете скачивать файлы