2 сезон

iTunes

MVO

1

2 сезон

iTunes

iTunes

1 сезон

RePack

30

Новинка

ВАЖНО

ИГРА 18+

pack

RePack

MK11
pack

Легкие деньги

RePack

jed

RePack

fifa19

RePack

RDR2

RePack

NEED FOR SPEED™ PAYBACK

4 сезон

9 сезон

Бесстыжие 9 сезон

Все сериалы

все сериалы на PB.wtf

RePack

FAR CRY 5

Anonymous, добрый вечер, мы не успеваем собрать деньги на оплату серверов за декабрь и январь, помогите нам пожалуйста в это трудное время. В качестве благодарности мы отключим Вам всю рекламу на сайте (укажите свой ник в строку Ваше имя)!

×
  
Magnet ссылка

Ослепленный желаниями / Bedazzled (Харолд Рэмис) [2000, Комедия, DVDRip-AVC, Дублированный+Авторский одноголосный] pb.wtf

Ослепленный желаниями через торрент pb.wtf

Размер: 2.18 GB | Добавлен: 7 лет 7 мес. назад | Торрент скачан:144 раза
Скачать  

25-05-2013 17:58 Ослепленный желаниями Скачать торрент  

Ослепленный желаниями / Bedazzled
Год выпуска: 2000
Страна: США
Студия: 20th Century Fox Film Corporation, KirchMedia, Regency Enterprises
Жанр: Комедия
Продолжительность: 01:33:06
Перевод 1: Дублированный
Перевод 2: Авторский (одноголосный) [Ю.Живов]
Оригинальная дорожка: Английский

Режиссер: Харолд Рэмис

В ролях: Брендан Фрэйзер, Элизабет Херли, Фрэнсис О'Коннор, Орландо Джоунс, Пол Эделстайн, Тоби Хасс, Мириам Шор, Гэбриэл Кэссеус, Брайан Дойл-Мюррэй

Описание: Дьявол еще никогда не был таким соблазнительным. В этот раз он принимает обличие распутной красотки, заставляющий любого мужчину броситься в объятия безумства. Неудачник-программист лучший объект для вербовки. Объект продажи бессмертная душа. Цена 7 желаний. Но в этой жизни бесплатным бывает лишь сыр в мышеловке, каждая медаль имеет две стороны. Выполняя любое желание продажной души, дьявол не дает насладиться результатом. В мгновение ока жизнь программиста превращается в настоящий ад.

КИНОПОИСК

Качество: DVDRip-AVC
Видео кодек: h.264
Аудио кодек: АС3
Видео: MPEG-4 AVC, 2195 Кбит/с, 1024x432
Аудио 1: АС3, 2 ch, 256 Кбит/с [DUB]
Аудио 2: АС3, 6 ch, 448 Кбит/с [AVO]
Аудио 3: АС3, 6 ch, 448 Кбит/с [ENG]
Эта лента, которой в нашем прокате дали несколько неуклюжее название «Ослеплённый желаниями», является римейком картины «Ослеплённый блеском» Стенли Донена, снятой им в Великобритании ещё в 1967 году. Хэролд Рэмис, режиссёр новой версии, специализирующийся на комедиях разного типа (самая прославленная из них «День сурка»), ловко осовременил прежний фильм, наполнив действие забавными шутками. А главное придал с помощью британской актрисы Элизабет Хёрли по-настоящему соблазнительное женское обличье Дьяволу (ведь не зря говорится, что «дьявол это женщина»).

Этот самый дьявол предлагает застенчивому и неудачливому парню Эллиоту Ричардсону, техническому советнику из телефонной компании, который напрасно влюблён в течение уже четырёх лет в привлекательную сотрудницу Элисон Гарднер, исполнение заветных семи желаний в обмен на его душу. И Эллиот непременно хочет реализовать свои невоздержанные фантазии, представляя себя самыми разными людьми от звезды баскетбола до колумбийского наркобарона. Однако и Лукавый тоже меняет различные личины, оказываясь то прельщающей школьницей, то сладострастной медсестрой, то сексапильной красоткой в бикини, каждый раз подзадоривая типичные мужские мечты об обладании недостижимыми объектами влечения, а потом хитроумно обманывая простодушного героя, опять оставляя его ни с чем.

Этот фильм, обошедшийся во всё-таки весомую сумму ($48 млн.), как ни странно, не очень-то удачно прошёл в США, но вот в мировом прокате смог почти вдвое компенсировать свои затраты.


Из книги «3500 кинорецензий» (Сергей Кудрявцев - 2000)
Оригинальный «Ослеплённый желаниями» 1967 года был любимым фильмом Брендана Фрейзера в детстве.
Своих псов на пляже Дьявол называет Дадли и Питер - эта шутка отсылает к именам Питера Кука и Дадли Мура, сценаристов оригинального фильма 1967 года.
Премия канала «MTV», 2001 год
Номинации (1):

Лучшая одежда (Элизабет Херли)
E:INTERNETOsleplenniy.zhelaniem.2000.x264.DVDRip.(AVC).olegek70.mkv
General
Unique ID : 184718108098172407932832244495997113456 (0x8AF769DF70CAA261B807F4F0029E9470)
Complete name : E:INTERNETOsleplenniy.zhelaniem.2000.x264.DVDRip.(AVC).olegek70.mkv
Format : Matroska
Format version : Version 1
File size : 2.18 GiB
Duration : 1h 33mn
Overall bit rate : 3 351 Kbps
Encoded date : UTC 2012-06-17 11:05:53
Writing application : mkvmerge v2.1.0 ('Another Place To Fall') built on Aug 19 2007 13:40:07
Writing library : libebml v0.7.7 + libmatroska v0.8.1
Video #1
ID : 1
Format : AVC
Format/Info : Advanced Video Codec
Format profile : High@L4.1
Format settings, CABAC : Yes
Format settings, ReFrames : 6 frames
Codec ID : V_MPEG4/ISO/AVC
Duration : 1h 33mn
Bit rate : 2 195 Kbps
Width : 1 024 pixels
Height : 432 pixels
Display aspect ratio : 2.40:1
Frame rate mode : Constant
Frame rate : 23.976 fps
Color space : YUV
Chroma subsampling : 4:2:0
Bit depth : 8 bits
Scan type : Progressive
Bits/(Pixel*Frame) : 0.207
Stream size : 1.39 GiB (64%)
Writing library : x264 core 115 r1937 aa21558
Encoding settings : cabac=1 / ref=6 / deblock=1:-2:-2 / analyse=0x3:0x113 / me=umh / subme=6 / psy=1 / psy_rd=1.00:0.10 / mixed_ref=0 / me_range=32 / chroma_me=1 / trellis=2 / 8x8dct=1 / cqm=0 / deadzone=21,11 / fast_pskip=1 / chroma_qp_offset=-3 / threads=6 / sliced_threads=0 / nr=0 / decimate=1 / interlaced=0 / bluray_compat=0 / constrained_intra=0 / bframes=6 / b_pyramid=2 / b_adapt=2 / b_bias=0 / direct=3 / weightb=1 / open_gop=0 / weightp=0 / keyint=250 / keyint_min=23 / scenecut=40 / intra_refresh=0 / rc_lookahead=30 / rc=2pass / mbtree=1 / bitrate=2195 / ratetol=1.0 / qcomp=0.60 / qpmin=15 / qpmax=47 / qpstep=3 / cplxblur=20.0 / qblur=0.5 / ip_ratio=1.40 / aq=1:1.10
Language : English
Default : Yes
Forced : No
Audio #2
ID : 2
Format : AC-3
Format/Info : Audio Coding 3
Mode extension : CM (complete main)
Format settings, Endianness : Big
Codec ID : A_AC3
Duration : 1h 33mn
Bit rate mode : Constant
Bit rate : 256 Kbps
Channel(s) : 2 channels
Channel positions : Front: L R
Sampling rate : 48.0 KHz
Bit depth : 16 bits
Compression mode : Lossy
Stream size : 170 MiB (8%)
Title : ДБ
Language : Russian
Default : Yes
Forced : No
Audio #3
ID : 3
Format : AC-3
Format/Info : Audio Coding 3
Mode extension : CM (complete main)
Format settings, Endianness : Big
Codec ID : A_AC3
Duration : 1h 33mn
Bit rate mode : Constant
Bit rate : 448 Kbps
Channel(s) : 6 channels
Channel positions : Front: L C R, Side: L R, LFE
Sampling rate : 48.0 KHz
Bit depth : 16 bits
Compression mode : Lossy
Stream size : 298 MiB (13%)
Title : АО (Ю.Живов)
Language : Russian
Default : No
Forced : No
Audio #4
ID : 4
Format : AC-3
Format/Info : Audio Coding 3
Mode extension : CM (complete main)
Format settings, Endianness : Big
Codec ID : A_AC3
Duration : 1h 33mn
Bit rate mode : Constant
Bit rate : 448 Kbps
Channel(s) : 6 channels
Channel positions : Front: L C R, Side: L R, LFE
Sampling rate : 48.0 KHz
Bit depth : 16 bits
Compression mode : Lossy
Stream size : 298 MiB (13%)
Title : Оригинал
Language : English
Default : No
Forced : No


Релиз от: pb.wtf



Скачать Ослепленный желаниями через торрент http://i46.fastpic.ru/big/2013/0525/16/2ea7ec092d1d2648a603f7be41810616.jpg Скачать фильм Ослепленный желаниями через торрент бесплантно в хорошем качестве Описание: Дьявол еще никогда не был таким соблазнительным. В этот раз он принимает обличие распутной красотки, заставляющий любого мужчину ... 9.9 10 8
Info! Золотая раздача, скачанное не засчитывается.
Торрент: Зарегистрирован [2013-05-25 17:58] · скачан: 144 раз
Статус: √ проверено
Размер: 2.18 GB
Как cкачать? Как скачать Ослепленный желаниями через торрент | UTorrent

% Раздел Тема Автор DL S | L
Классика зарубежного кино [ 1.45 GB ] Ослеплённый желаниями / Bedazzled [1967 HDRip] [MVO] killermax2013 Скачать
1 | 0
Фильмы [HD 720p, 1080p] (Хороший звук DUB, MVO) [ 4.37 GB ] Ослепленный желаниями / Bedazzled [2000 Германия BDRip 720p [ - ] flatro1 Скачать
1 | 0
Фильмы до 2000 г. [ 1.37 GB ] Ослепленный желаниями / Bedazzled [2000 DVDRip] M@RCU$ Скачать
2 | 0

28-11-2019 20:33  

Отключить всю рекламу на сайте

    Дорогой пользователь! Огромная просьба, поблагодарите релизера, оцените раздачу и оставьте свои комментарий, если Вы скачали Ослепленный желаниями через торрент бесплатно! Внесите свою лепту в развитие PiratBit!
    Комментировать посты могут только пользователи прошедшие не сложную регистрацию
    Показать сообщения:    

    Ослепленный желаниями через торрент
    Скачать бесплатно Ослепленный желаниями
    Ослепленный желаниями скачать торрент
    Ослепленный желаниями смотреть онлайн
    Cкачать фильм Ослепленный желаниями бесплатно
    Ослепленный желаниями скачать торрент в хорошем качестве
    Ослепленный желаниями смотреть онлайн бесплатно в хорошем качестве


    Вы не можете начинать темы
    Вы не можете отвечать на сообщения
    Вы не можете редактировать свои сообщения
    Вы не можете удалять свои сообщения
    Вы не можете голосовать в опросах
    Вы не можете прикреплять файлы к сообщениям
    Вы можете скачивать файлы