новый адрес пиратбит piratbit
MEGA NEWS Получи личный уникальный адрес сайта и защити себя от блокировок. Внимание количество ограничено!!!

iTunes

1+1

iTunes

мы

iTunes

1

iTunes

Чернобыль

iTunes

Ральф против интернета

Лицензия

ПШазам

Лицензия

Игра престолов

Лицензия

30
pack

ВАЖНО

!!Акция!!

Alien_RageХит недели

RePack

Resident Evil 21

ИГРА 18+

pack

RePack

Metro:Exodus

!!Акция!!

Alien_Rage

RePack

fifa19

RePack

Assassins Creed: Odyssey

RePack

NEED FOR SPEED™ PAYBACK

3 сезон

9 сезон

Бесстыжие 9 сезон

Все сериалы

все сериалы на PB.wtf

RePack

FAR CRY 5
Ребята, катастрофически не хватает 1900р. для оплаты серверов за АВГУСТ (всвязи с блокировками трафик упал в 3 раза), 1-2р., выручайте.
  

Жандарм из Сен-Тропе / Le Gendarme de St. Tropez (Жан Жиро / Jean Girault) [1964, Франция, Комедия, HDRip] 3XMVO pb.wtf

Жандарм из Сен-Тропе через торрент pb.wtf

Размер: 1.46 GB | Добавлен: 6 лет 4 мес. назад | Торрент скачан:110 раз
Скачать  

26-05-2013 04:32 Жандарм из Сен-Тропе Скачать торрент  

Жандарм из Сен-Тропе / Le Gendarme de St. Tropez
Страна: Франция
Жанр: Комедия
Год выпуска: 1964
Продолжительность: 01:39:19

Перевод: Профессиональный (многоголосый закадровый) РЕН-ТВ + Профессиональный (многоголосый закадровый) ОРТ + Профессиональный (многоголосый закадровый) НТВ+
Cубтитры: нет
Режиссер: Жан Жиро / Jean Girault

В ролях: Луи Де Фюнес /Louis de Funes/, Мишель Галабрю /Michel Galabru/, Женевьева Град /Genevie`ve Grad/, Жан Лефевр /Jean Lefebvre/, Кристиан Марин /Christian Marin/, Бертран Жан-Поль /Jean-Pierre Bertrand

Описание: В очаровательный курортный городок на повышение переводят бравого сержанта Крюшо с красоткой - дочерью Николь. Добрые, но придурковатые жандармы принимают нового коллегу с радостью. Но она быстро проходит... Еще более бестолковый, чем подчиненные Крюшо с рвением заступает на защиту закона. Опасная охота на нудистов, тренировки по быстрому раздеванию, поиски украденной из музея картины и многое другое...

Крюшо! Работы у нас непочатый край...Так что в курс дела введу вас завтра.

Качество видео: HDRip
Формат видео: AVI
Видео кодек: XviD
Аудио кодек: AC3
Видео: 720x304 (2.37:1), 24.000 fps, XviD build 50 ~1519 kbps avg, 0.29 bit/pixel
Аудио #1: 48 kHz, AC3 Dolby Digital, 2/0 (L,R) Surround Encoded ch, ~192 kbps | MVO РЕН-ТВ
Аудио #2: 48 kHz, AC3 Dolby Digital, 2/0 (L,R) Surround Encoded ch, ~192 kbps | MVO НТВ+
Аудио #3: 48 kHz, AC3 Dolby Digital, 2/0 (L,R) Surround Encoded ch, ~192 kbps | MVO ОРТ
Раздача от:
D:Le.gendarme.de.Saint-Tropez.1964.HDRip. [YTN]_by_dexter_lex.avi
General
Complete name : D:Le.gendarme.de.Saint-Tropez.1964.HDRip. [YTN]_by_dexter_lex.avi
Format : AVI
Format/Info : Audio Video Interleave
File size : 1.46 GiB
Duration : 1h 39mn
Overall bit rate : 2 114 Kbps
Writing application : VirtualDubMod 1.5.10.3 | www.virtualdub-fr.org || (build 2550/release)
Writing library : VirtualDubMod build 2550/release
Video #0
ID : 0
Format : MPEG-4 Visual
Format profile : Advanced Simple@L5
Format settings, BVOP : 1
Format settings, QPel : No
Format settings, GMC : No warppoints
Format settings, Matrix : Custom
Codec ID : XVID
Codec ID/Hint : XviD
Duration : 1h 39mn
Bit rate : 1 519 Kbps
Width : 720 pixels
Height : 304 pixels
Display aspect ratio : 2.37:1
Frame rate : 24.000 fps
Color space : YUV
Chroma subsampling : 4:2:0
Bit depth : 8 bits
Scan type : Progressive
Compression mode : Lossy
Bits/(Pixel*Frame) : 0.289
Stream size : 1.05 GiB (72%)
Writing library : XviD 1.2.1 (UTC 2008-12-04)
Audio #1
ID : 1
Format : AC-3
Format/Info : Audio Coding 3
Format profile : Dolby Digital
Mode extension : CM (complete main)
Format settings, Endianness : Big
Codec ID : 2000
Duration : 1h 39mn
Bit rate mode : Constant
Bit rate : 192 Kbps
Channel(s) : 2 channels
Channel positions : Front: L R
Sampling rate : 48.0 KHz
Bit depth : 16 bits
Compression mode : Lossy
Stream size : 136 MiB (9%)
Alignment : Split accross interleaves
Interleave, duration : 42 ms (1.00 video frame)
Interleave, preload duration : 500 ms
Audio #2
ID : 2
Format : AC-3
Format/Info : Audio Coding 3
Format profile : Dolby Digital
Mode extension : CM (complete main)
Format settings, Endianness : Big
Codec ID : 2000
Duration : 1h 39mn
Bit rate mode : Constant
Bit rate : 192 Kbps
Channel(s) : 2 channels
Channel positions : Front: L R
Sampling rate : 48.0 KHz
Bit depth : 16 bits
Compression mode : Lossy
Stream size : 136 MiB (9%)
Alignment : Split accross interleaves
Interleave, duration : 42 ms (1.00 video frame)
Interleave, preload duration : 500 ms
Audio #3
ID : 3
Format : AC-3
Format/Info : Audio Coding 3
Format profile : Dolby Digital
Mode extension : CM (complete main)
Format settings, Endianness : Big
Codec ID : 2000
Duration : 1h 39mn
Bit rate mode : Constant
Bit rate : 192 Kbps
Channel(s) : 2 channels
Channel positions : Front: L R
Sampling rate : 48.0 KHz
Bit depth : 16 bits
Compression mode : Lossy
Stream size : 136 MiB (9%)
Alignment : Split accross interleaves
Interleave, duration : 42 ms (1.00 video frame)
Interleave, preload duration : 500 ms
pb.wtf



Скачать Жандарм из Сен-Тропе через торрент http://i48.fastpic.ru/big/2012/1111/e0/80c654ec7ee46c0579057f31fc82eae0.jpg Скачать фильм Жандарм из Сен-Тропе через торрент бесплантно в хорошем качестве Описание: В очаровательный курортный городок на повышение переводят бравого сержанта Крюшо с красоткой - дочерью Николь. Добрые, но ... 10 10 8
Info! Золотая раздача, скачанное не засчитывается.
Торрент: Зарегистрирован [2013-05-26 04:32] · скачан: 110 раз
Статус: √ проверено
Размер: 1.46 GB
Как cкачать? Как скачать Жандарм из Сен-Тропе через торрент | qTorrent


>> Регистрируемся здесь <<






Отзывы и комментарии о схеме читаем и пишем здесь: ---> Отзывы и комментарии о схеме

Новые благодарочки в телеграм довольных пользователей:
скриншот   скриншот   скриншот   скриншот   скриншот

26-05-2013 05:20 Жандарм из Сен-Тропе Скачать торрент  

Видео: 720x304 (2.37:1), 23.976 fps, XviD build 47 ~1505 kbps avg, 0.29 bit/pixel
Аудио#1: 48 kHz, AC3 Dolby Digital, 2/0 (L,R) ch, ~256.00 kbps avg

http://pb.wtf/topic/101928/

По сравнению с этим рипом, у меня преимущество в 3 аудиодорожки при этом качество не потерялось.

Фпс разный, возможно что делался рип с другого исходника.pb.wtf



26-05-2013 10:25 Жандарм из Сен-Тропе Скачать торрент  

Вот это я понимаю комедия. Люблю фильмы с Луи Де Фюнесом.pb.wtf



    Дорогой пользователь! Огромная просьба, поблагодарите релизера, оцените раздачу и оставьте свои комментарий, если Вы скачали Жандарм из Сен-Тропе через торрент бесплатно! Внесите свою лепту в развитие PiratBit!
    Комментировать посты могут только пользователи прошедшие не сложную регистрацию
    Показать сообщения:    

    Жандарм из Сен-Тропе через торрент
    Скачать бесплатно Жандарм из Сен-Тропе
    Жандарм из Сен-Тропе скачать торрент
    Жандарм из Сен-Тропе смотреть онлайн
    Cкачать фильм Жандарм из Сен-Тропе бесплатно
    Жандарм из Сен-Тропе скачать торрент в хорошем качестве
    Жандарм из Сен-Тропе смотреть онлайн бесплатно в хорошем качестве


    Вы не можете начинать темы
    Вы не можете отвечать на сообщения
    Вы не можете редактировать свои сообщения
    Вы не можете удалять свои сообщения
    Вы не можете голосовать в опросах
    Вы не можете прикреплять файлы к сообщениям
    Вы можете скачивать файлы