Ссылка на приватное зеркало нашего сайта всего за 1$. Внимание количество ограничено!!!

2 сезон

iTunes

1 сезон

1

2 сезон

2 сезон

iTunes

1 сезон

RePack

30

Новинка

ВАЖНО

ИГРА 18+

pack

RePack

MK11
pack

Забери бонус

RePack

jed

!!Акция!!

Alien_Rage

RePack

fifa19

RePack

Assassins Creed: Odyssey

RePack

NEED FOR SPEED™ PAYBACK

4 сезон

9 сезон

Бесстыжие 9 сезон

Все сериалы

все сериалы на PB.wtf

RePack

FAR CRY 5
  

Исключение из правил (Ирина Волкова) [2012, Россия, мелодрама, DVDRip] pb.wtf

Исключение из правил через торрент pb.wtf

Размер: 1.46 GB | Добавлен: 7 лет 6 мес. назад | Торрент скачан:168 раз
Скачать  

26-05-2013 15:20 Исключение из правил Скачать торрент  

Исключение из правил
Страна: Россия
Жанр: мелодрама
Год выпуска: 2012
Продолжительность: 01:33:52
Перевод: Не требуется [Лицензия]
Субтиры: нет

Режиссёр: Ирина Волкова

В ролях: Варвара Андреева, Анна Каменкова, Михаил Евланов, Максим Литовченко, Александр Баргман, Сергей Колтаков, Кирилл Жандаров, Татьяна Колганова, Сергей Власов, Дмитрий Подмозов, Оксана Базилевич, Александр Иванов, Александр Строев, Ирина Патракова, Ирина Основина, Мария Клешнина, Артем Крылов, Хельга Филиппова, Людмила Плохая, Сергей Мардарь, Сергей Бызгу, Мария Валешная, Александр Половцев, Егор Бакулин, Юлия Денисова, Виктория Глухих

Описание: Марина приходит спустя много лет на встречу с одноклассниками, которые обсуждают последние изменения в жизни друг друга. У Марины за эти годы ничего не изменилось — в разводе, живет с мамой, работает в школе. Взглянув на себя глазами одноклассников, Марина уезжает из Петербурга в Москву, чтобы радикально изменить свою жизнь…

Качество видео: DVDRip
Формат видео: AVI
Видео кодек: XviD
Аудио кодек: AC3
Видео: 720x400 (1.80:1), 25 fps, XviD build 50 ~2020 kbps avg, 0.28 bit/pixel
Аудио: 48 kHz, AC3 Dolby Digital, 2/0 (L,R) ch, ~192 kbps
Раздача от:
D:Iskljuchenie.iz.pravil.2012.DVDRip.1.45 [YTN]_by_dexter_lex.avi
General
Complete name : D:Iskljuchenie.iz.pravil.2012.DVDRip.1.45 [YTN]_by_dexter_lex.avi
Format : AVI
Format/Info : Audio Video Interleave
File size : 1.46 GiB
Duration : 1h 33mn
Overall bit rate : 2 222 Kbps
Writing application : VirtualDubMod 1.5.10.3 | www.virtualdub-fr.org || (build 2550/release)
Writing library : VirtualDubMod build 2550/release
Video #0
ID : 0
Format : MPEG-4 Visual
Format profile : Advanced Simple@L5
Format settings, BVOP : 1
Format settings, QPel : No
Format settings, GMC : No warppoints
Format settings, Matrix : Custom
Codec ID : XVID
Codec ID/Hint : XviD
Duration : 1h 33mn
Bit rate : 2 020 Kbps
Width : 720 pixels
Height : 400 pixels
Display aspect ratio : 1.80:1
Frame rate : 25.000 fps
Color space : YUV
Chroma subsampling : 4:2:0
Bit depth : 8 bits
Scan type : Progressive
Compression mode : Lossy
Bits/(Pixel*Frame) : 0.281
Stream size : 1.32 GiB (91%)
Writing library : XviD 1.2.1 (UTC 2008-12-04)
Audio #1
ID : 1
Format : AC-3
Format/Info : Audio Coding 3
Mode extension : CM (complete main)
Format settings, Endianness : Big
Codec ID : 2000
Duration : 1h 33mn
Bit rate mode : Constant
Bit rate : 192 Kbps
Channel(s) : 2 channels
Channel positions : Front: L R
Sampling rate : 48.0 KHz
Bit depth : 16 bits
Compression mode : Lossy
Stream size : 129 MiB (9%)
Alignment : Split accross interleaves
Interleave, duration : 40 ms (1.00 video frame)
Interleave, preload duration : 500 ms
http://multi-up.com/869476
pb.wtf



Скачать Исключение из правил через торрент http://i47.fastpic.ru/big/2013/0526/1f/9c8b5daf020ed89ffa1691a0ec37b11f.jpg Скачать фильм Исключение из правил через торрент бесплантно в хорошем качестве Описание: Марина приходит спустя много лет на встречу с одноклассниками, которые обсуждают последние изменения в жизни друг друга. У Марины ... 10 10 2
Info! Золотая раздача, скачанное не засчитывается.
Торрент: Зарегистрирован [2013-05-26 15:20] · скачан: 168 раз
Статус: √ проверено
Размер: 1.46 GB
Как cкачать? Как скачать Исключение из правил через торрент | qTorrent

% Раздел Тема Автор DL S | L
Наши новые фильмы 2012 [ 745 MB ] Исключение из правил [2012 Россия DVDRip] dexter lex Скачать
1 | 0
Наши сериалы [ 6.13 GB ] Исключение из правил / Серии 1-2 из 2 [2012 DVD9] R5 voovaz Скачать
1 | 0

28-11-2019 20:33  

Отключить всю рекламу на сайте

    Дорогой пользователь! Огромная просьба, поблагодарите релизера, оцените раздачу и оставьте свои комментарий, если Вы скачали Исключение из правил через торрент бесплатно! Внесите свою лепту в развитие PiratBit!
    Комментировать посты могут только пользователи прошедшие не сложную регистрацию
    Показать сообщения:    

    Исключение из правил через торрент
    Скачать бесплатно Исключение из правил
    Исключение из правил скачать торрент
    Исключение из правил смотреть онлайн
    Cкачать фильм Исключение из правил бесплатно
    Исключение из правил скачать торрент в хорошем качестве
    Исключение из правил смотреть онлайн бесплатно в хорошем качестве


    Вы не можете начинать темы
    Вы не можете отвечать на сообщения
    Вы не можете редактировать свои сообщения
    Вы не можете удалять свои сообщения
    Вы не можете голосовать в опросах
    Вы не можете прикреплять файлы к сообщениям
    Вы можете скачивать файлы