Anonymous, добрый вечер, присоединяйтесь к нам в Telegram!, здесь всегда актуальный адрес сайта, оперативная поддержка и многое другое!

>

5.5

iTunes

7.4

iTunes

7.9

iTunes

1

7.7

1 сезон

6.8

iTunes

7.3

1 сезон

13

6.7

1 сезон

8.3

RePack

30

ULTIMATE

pack

9.9

Лицензия

ВАЖНО

ИГРА 18+

pack

7.3

RePack

MK11

7.7

RePack

jed

7.8

RePack

fifa19

8.5

RePack

RDR2

RePack

NEED FOR SPEED™ PAYBACK

4 сезон

9 сезон

Бесстыжие 9 сезон

Все сериалы

все сериалы на PB.wtf

RePack

FAR CRY 5

Anonymous, добрый вечер, мы катастрофически не успеваем собрать деньги на оплату серверов, помогите нам пожалуйста 5,10,15р., для нас важна любая помощь . В качестве благодарности мы отключим Вам всю рекламу на сайте (укажите свой ник в строку Ваше имя)!

×
  
Magnet ссылка

(Rap) Артём Татищевский - Обитатель тепла - 2013 [CP-CD002], FLAC (tracks+.cue), lossless pb.wtf

через торрент pb.wtf

Размер: 437 MB | Добавлен: 8 лет 5 мес. назад | Торрент скачан:90 раз
Смотреть онлайн | Скачать    Ребята, помогите собрать деньги на оплату серверов!!!

26-05-2013 16:23 Скачать торрент  

Артём Татищевский - Обитатель тепла Жанр: Rap
Страна: Россия
Лейбл: Company Pirates
Каталожный номер: CP-CD002
Аудиокодек: FLAC (*.flac)
Тип рипа: tracks+.cue
Битрейт аудио: lossless
Продолжительность: 01:03:54
Наличие сканов: Да
01. Intro (4SGM)
02. Ядер
03. Покаяние (feat. Арс Ворошиловский, Свои)
04. Правда (skit)
05. Другими стали
06. История о затонувших лошадях (skit)
07. Велиар feat. 4SGM
08. Автостолица feat. Lil'Knife
09. Дядя Леня, он же Белый (skit)
10. Сканер feat. Тимоха VBT
11. Как остановить небо... feat. Daffy, Loc-Dog
12. Не всем
13. Инстинкт
14. Блик
15. Опасная игра
16. Я не буду молчать
17. Семья (skit)
18. Весной
19. Нашедшим feat. Loc-Dog
20. Верю добру
Exact Audio Copy V1.0 beta 3 from 29. August 2011

Отчёт EAC об извлечении, выполненном 17. апреля 2013, 20:37

Артём Татищевский / Обитатель тепла

Дисковод: PIONEER DVD-RW DVR-110D Adapter: 0 ID: 0

Режим чтения : Достоверность
Использование точного потока : Да
Отключение кэша аудио : Да
Использование указателей C2 : Нет

Коррекция смещения при чтении : 48
Способность читать области Lead-in и Lead-out : Нет
Заполнение пропущенных сэмплов тишиной : Да
Удаление блоков с тишиной в начале и конце : Нет
При вычислениях CRC использовались нулевые сэмплы : Да
Интерфейс : Встроенный Win32-интерфейс для Win NT/2000
Обработка зазоров : Добавлено к предыдущему треку

Выходной формат : Пользовательский кодировщик
Выбранный битрейт : 768 kBit/s
Качество : Высокий
Добавление ID3-тега : Нет
Утилита сжатия : C:Program FilesExact Audio CopyFLACFLAC.EXE
Дополнительные параметры : -V -8 -T "Genre=%genre%" -T "Artist=%artist%" -T "Title=%title%" -T "Album=%albumtitle%" -T "Date=%year%" -T "Tracknumber=%tracknr%" -T "Comment=%comment%" %source%

TOC извлечённого CD

Трек | Старт | Длительность | Начальный сектор | Конечный сектор
---------------------------------------------------------------------
1 | 0:00.00 | 1:55.45 | 0 | 8669
2 | 1:55.45 | 4:03.25 | 8670 | 26919
3 | 5:58.70 | 4:16.45 | 26920 | 46164
4 | 10:15.40 | 1:56.49 | 46165 | 54913
5 | 12:12.14 | 3:45.05 | 54914 | 71793
6 | 15:57.19 | 1:59.59 | 71794 | 80777
7 | 17:57.03 | 4:24.73 | 80778 | 100650
8 | 22:22.01 | 4:31.55 | 100651 | 121030
9 | 26:53.56 | 0:36.02 | 121031 | 123732
10 | 27:29.58 | 3:56.02 | 123733 | 141434
11 | 31:25.60 | 4:10.26 | 141435 | 160210
12 | 35:36.11 | 2:39.50 | 160211 | 172185
13 | 38:15.61 | 3:22.12 | 172186 | 187347
14 | 41:37.73 | 4:07.11 | 187348 | 205883
15 | 45:45.09 | 3:20.46 | 205884 | 220929
16 | 49:05.55 | 3:44.14 | 220930 | 237743
17 | 52:49.69 | 1:27.17 | 237744 | 244285
18 | 54:17.11 | 3:10.30 | 244286 | 258565
19 | 57:27.41 | 4:08.53 | 258566 | 277218
20 | 61:36.19 | 3:41.36 | 277219 | 293829

Трек 1

Имя файла D:#1 MusicFLACАртём Татищевский - Обитатель тепла (2013) [FLAC]�1. Intro (4SGM).wav

Длина предзазора 0:00:02.00

Пиковый уровень 97.2 %
Скорость извлечения 4.1 X
Качество трека 100.0 %
CRC теста C233EBB9
CRC копии C233EBB9
Копирование... OK

Трек 2

Имя файла D:#1 MusicFLACАртём Татищевский - Обитатель тепла (2013) [FLAC]�2. Ядер.wav

Пиковый уровень 97.5 %
Скорость извлечения 4.5 X
Качество трека 99.9 %
CRC теста 4687CB78
CRC копии 4687CB78
Копирование... OK

Трек 3

Имя файла D:#1 MusicFLACАртём Татищевский - Обитатель тепла (2013) [FLAC]�3. Покаяние feat. Арс Ворошиловский, Свои.wav

Пиковый уровень 97.5 %
Скорость извлечения 5.0 X
Качество трека 99.9 %
CRC теста 9A12201F
CRC копии 9A12201F
Копирование... OK

Трек 4

Имя файла D:#1 MusicFLACАртём Татищевский - Обитатель тепла (2013) [FLAC]�4. Правда (skit).wav

Пиковый уровень 97.2 %
Скорость извлечения 5.1 X
Качество трека 100.0 %
CRC теста 0CC96E6D
CRC копии 0CC96E6D
Копирование... OK

Трек 5

Имя файла D:#1 MusicFLACАртём Татищевский - Обитатель тепла (2013) [FLAC]�5. Другими стали.wav

Пиковый уровень 97.8 %
Скорость извлечения 5.3 X
Качество трека 99.9 %
CRC теста 81D905D9
CRC копии 81D905D9
Копирование... OK

Трек 6

Имя файла D:#1 MusicFLACАртём Татищевский - Обитатель тепла (2013) [FLAC]�6. История о затонувших лошадях (skit).wav

Пиковый уровень 97.3 %
Скорость извлечения 5.5 X
Качество трека 100.0 %
CRC теста 5479667D
CRC копии 5479667D
Копирование... OK

Трек 7

Имя файла D:#1 MusicFLACАртём Татищевский - Обитатель тепла (2013) [FLAC]�7. Велиар feat. 4SGM.wav

Пиковый уровень 97.5 %
Скорость извлечения 6.3 X
Качество трека 100.0 %
CRC теста 7B671827
CRC копии 7B671827
Копирование... OK

Трек 8

Имя файла D:#1 MusicFLACАртём Татищевский - Обитатель тепла (2013) [FLAC]�8. Автостолица feat. Lil'Knife.wav

Пиковый уровень 97.5 %
Скорость извлечения 7.0 X
Качество трека 100.0 %
CRC теста 3D5A03F2
CRC копии 3D5A03F2
Копирование... OK

Трек 9

Имя файла D:#1 MusicFLACАртём Татищевский - Обитатель тепла (2013) [FLAC]�9. Дядя Леня, он же Белый (skit).wav

Пиковый уровень 86.4 %
Скорость извлечения 3.8 X
Качество трека 100.0 %
CRC теста E01A64F0
CRC копии E01A64F0
Копирование... OK

Трек 10

Имя файла D:#1 MusicFLACАртём Татищевский - Обитатель тепла (2013) [FLAC]10. Сканер feat. Тимоха VBT.wav

Пиковый уровень 97.2 %
Скорость извлечения 6.3 X
Качество трека 99.9 %
CRC теста 5B62369B
CRC копии 5B62369B
Копирование... OK

Трек 11

Имя файла D:#1 MusicFLACАртём Татищевский - Обитатель тепла (2013) [FLAC]11. Как остановить небо... feat. Daffy, Loc-Dog.wav

Пиковый уровень 97.5 %
Скорость извлечения 6.6 X
Качество трека 99.9 %
CRC теста 7797B667
CRC копии 7797B667
Копирование... OK

Трек 12

Имя файла D:#1 MusicFLACАртём Татищевский - Обитатель тепла (2013) [FLAC]12. Не всем.wav

Пиковый уровень 97.5 %
Скорость извлечения 6.0 X
Качество трека 99.9 %
CRC теста 94F0CE2F
CRC копии 94F0CE2F
Копирование... OK

Трек 13

Имя файла D:#1 MusicFLACАртём Татищевский - Обитатель тепла (2013) [FLAC]13. Инстинкт.wav

Пиковый уровень 97.5 %
Скорость извлечения 6.6 X
Качество трека 99.9 %
CRC теста 6487F607
CRC копии 6487F607
Копирование... OK

Трек 14

Имя файла D:#1 MusicFLACАртём Татищевский - Обитатель тепла (2013) [FLAC]14. Блик.wav

Пиковый уровень 97.2 %
Скорость извлечения 8.0 X
Качество трека 100.0 %
CRC теста 41472665
CRC копии 41472665
Копирование... OK

Трек 15

Имя файла D:#1 MusicFLACАртём Татищевский - Обитатель тепла (2013) [FLAC]15. Опасная игра.wav

Пиковый уровень 97.2 %
Скорость извлечения 8.0 X
Качество трека 100.0 %
CRC теста 30F75842
CRC копии 30F75842
Копирование... OK

Трек 16

Имя файла D:#1 MusicFLACАртём Татищевский - Обитатель тепла (2013) [FLAC]16. Я не буду молчать.wav

Пиковый уровень 97.5 %
Скорость извлечения 8.3 X
Качество трека 100.0 %
CRC теста E295E6BA
CRC копии E295E6BA
Копирование... OK

Трек 17

Имя файла D:#1 MusicFLACАртём Татищевский - Обитатель тепла (2013) [FLAC]17. Семья (skit).wav

Пиковый уровень 97.1 %
Скорость извлечения 6.9 X
Качество трека 100.0 %
CRC теста 8A89A293
CRC копии 8A89A293
Копирование... OK

Трек 18

Имя файла D:#1 MusicFLACАртём Татищевский - Обитатель тепла (2013) [FLAC]18. Весной.wav

Пиковый уровень 98.1 %
Скорость извлечения 8.4 X
Качество трека 100.0 %
CRC теста 48A99F37
CRC копии 48A99F37
Копирование... OK

Трек 19

Имя файла D:#1 MusicFLACАртём Татищевский - Обитатель тепла (2013) [FLAC]19. Нашедшим feat. Loc-Dog.wav

Пиковый уровень 97.2 %
Скорость извлечения 8.9 X
Качество трека 100.0 %
CRC теста 96301034
CRC копии 96301034
Копирование... OK

Трек 20

Имя файла D:#1 MusicFLACАртём Татищевский - Обитатель тепла (2013) [FLAC]20. Верю добру.wav

Пиковый уровень 97.8 %
Скорость извлечения 8.8 X
Качество трека 100.0 %
CRC теста B516FF07
CRC копии B516FF07
Копирование... OK

Ошибок не произошло

Конец отчёта

==== Контрольная сумма отчёта 06EF9EFF6E78CF87939E56EDEF1747AE6FD6953688DEFC77BC34A8D56C15AE1F ====
REM GENRE Rap
REM DATE 2013
REM DISCID 480F4D14
REM COMMENT "ExactAudioCopy v1.0b3"
PERFORMER "Артём Татищевский"
TITLE "Обитатель тепла"
FILE "01. Intro (4SGM).wav" WAVE
TRACK 01 AUDIO
TITLE "Intro (4SGM)"
PERFORMER "Артём Татищевский"
INDEX 01 00:00:00
FILE "02. Ядер.wav" WAVE
TRACK 02 AUDIO
TITLE "Ядер"
PERFORMER "Артём Татищевский"
INDEX 01 00:00:00
FILE "03. Покаяние feat. Арс Ворошиловский, Свои.wav" WAVE
TRACK 03 AUDIO
TITLE "Покаяние feat. Арс Ворошиловский, Свои"
PERFORMER "Артём Татищевский"
INDEX 01 00:00:00
FILE "04. Правда (skit).wav" WAVE
TRACK 04 AUDIO
TITLE "Правда (skit)"
PERFORMER "Артём Татищевский"
INDEX 01 00:00:00
FILE "05. Другими стали.wav" WAVE
TRACK 05 AUDIO
TITLE "Другими стали"
PERFORMER "Артём Татищевский"
INDEX 01 00:00:00
FILE "06. История о затонувших лошадях (skit).wav" WAVE
TRACK 06 AUDIO
TITLE "История о затонувших лошадях (skit)"
PERFORMER "Артём Татищевский"
INDEX 01 00:00:00
FILE "07. Велиар feat. 4SGM.wav" WAVE
TRACK 07 AUDIO
TITLE "Велиар feat. 4SGM"
PERFORMER "Артём Татищевский"
INDEX 01 00:00:00
FILE "08. Автостолица feat. Lil'Knife.wav" WAVE
TRACK 08 AUDIO
TITLE "Автостолица feat. Lil'Knife"
PERFORMER "Артём Татищевский"
INDEX 01 00:00:00
FILE "09. Дядя Леня, он же Белый (skit).wav" WAVE
TRACK 09 AUDIO
TITLE "Дядя Леня, он же Белый (skit)"
PERFORMER "Артём Татищевский"
INDEX 01 00:00:00
FILE "10. Сканер feat. Тимоха VBT.wav" WAVE
TRACK 10 AUDIO
TITLE "Сканер feat. Тимоха VBT"
PERFORMER "Артём Татищевский"
INDEX 01 00:00:00
FILE "11. Как остановить небо... feat. Daffy, Loc-Dog.wav" WAVE
TRACK 11 AUDIO
TITLE "Как остановить небо... feat. Daffy, Loc-Dog"
PERFORMER "Артём Татищевский"
INDEX 01 00:00:00
FILE "12. Не всем.wav" WAVE
TRACK 12 AUDIO
TITLE "Не всем"
PERFORMER "Артём Татищевский"
INDEX 01 00:00:00
FILE "13. Инстинкт.wav" WAVE
TRACK 13 AUDIO
TITLE "Инстинкт"
PERFORMER "Артём Татищевский"
INDEX 01 00:00:00
FILE "14. Блик.wav" WAVE
TRACK 14 AUDIO
TITLE "Блик"
PERFORMER "Артём Татищевский"
INDEX 01 00:00:00
FILE "15. Опасная игра.wav" WAVE
TRACK 15 AUDIO
TITLE "Опасная игра"
PERFORMER "Артём Татищевский"
INDEX 01 00:00:00
FILE "16. Я не буду молчать.wav" WAVE
TRACK 16 AUDIO
TITLE "Я не буду молчать"
PERFORMER "Артём Татищевский"
INDEX 01 00:00:00
FILE "17. Семья (skit).wav" WAVE
TRACK 17 AUDIO
TITLE "Семья (skit)"
PERFORMER "Артём Татищевский"
INDEX 01 00:00:00
FILE "18. Весной.wav" WAVE
TRACK 18 AUDIO
TITLE "Весной"
PERFORMER "Артём Татищевский"
INDEX 01 00:00:00
FILE "19. Нашедшим feat. Loc-Dog.wav" WAVE
TRACK 19 AUDIO
TITLE "Нашедшим feat. Loc-Dog"
PERFORMER "Артём Татищевский"
INDEX 01 00:00:00
FILE "20. Верю добру.wav" WAVE
TRACK 20 AUDIO
TITLE "Верю добру"
PERFORMER "Артём Татищевский"
pb.wtf



Скачать через торрент https://pic1.kartinco.top/images/21/7kgvb1cyg6.jpg Скачать, смотреть онлайн бесплантно в хорошем качестве Треклист Intro (4SGM) Ядер Покаяние (feat. Арс Ворошиловский, Свои) Правда (skit) Другими стали История о затонувших ... 10 10 3
Info! Золотая раздача, скачанное не засчитывается.
Торрент: Зарегистрирован [2013-05-26 16:23] · скачан: 90 раз
Статус: √ проверено
Размер: 437 MB
Как cкачать? Как скачать через торрент | UTorrent

% Раздел Тема Автор DL S | L
Classic Rock & Hard Rock (lossless) [ 2.68 GB ] EVANESCENCE Дискография - 1998-2007 FLAC lossless ser_1985 Скачать
1 | 0
Eurodance, Technopop, Disco (lossless) [ 1.86 GB ] Dr. Alban Студийные альбомы - 5CD [FLAC lossless] tauras Скачать
1 | 0
Action FPS (1st Person) [ 8.89 GB ] Star Wars: The Force Unleashed - Ultimate Sith Edition [Lossless Repack RU/EN] от Druid =Чувак= Скачать
1 | 0
Архив (Alternative, Punk, Independent) [ 1.74 GB ] Breaking Benjamin - Дискография - 2001-2009 FLAC lossless King_IS_Back Скачать
1 | 0
Гоночные симуляторы [ 3.18 GB ] Дальнобойщик​и 3: Золотое Издание [Lossless Repack RU] от R.G. Catalyst roman3310i Скачать
1 | 0
Архив (Многоканальная музыка и собственные оцифровки) [ 405 MB ] Black Sabbath -Heaven & hell - 1980 DTS lossless staryirocker Скачать
1 | 1
RTS (стратегии в реальном времени) [ 4.21 GB ] Command & Conquer 4: Tiberian Twilight [Lossless RePackRUEA] Alex_Zeyn Скачать
1 | 0

28-11-2019 20:33  

Отключить всю рекламу на сайте

    Дорогой пользователь! Огромная просьба, поблагодарите релизера, оцените раздачу и оставьте свои комментарий, если Вы скачали через торрент бесплатно!
    Комментировать посты могут только пользователи прошедшие не сложную регистрацию
    Показать сообщения:    

    через торрент
    Скачать бесплатно
    скачать торрент
    смотреть онлайн
    Cкачать фильм бесплатно
    скачать торрент в хорошем качестве
    смотреть онлайн бесплатно в хорошем качестве


    Вы не можете начинать темы
    Вы не можете отвечать на сообщения
    Вы не можете редактировать свои сообщения
    Вы не можете удалять свои сообщения
    Вы не можете голосовать в опросах
    Вы не можете прикреплять файлы к сообщениям
    Вы можете скачивать файлы