Ссылка на приватное зеркало нашего сайта всего за 1$. Внимание количество ограничено!!!

2 сезон

iTunes

1 сезон

1

2 сезон

2 сезон

iTunes

1 сезон

RePack

30

Ultimate

ВАЖНО

ИГРА 18+

pack

RePack

MK11
pack

Забери бонус

RePack

jed

!!Акция!!

Alien_Rage

RePack

fifa19

RePack

Assassins Creed: Odyssey

RePack

NEED FOR SPEED™ PAYBACK

4 сезон

9 сезон

Бесстыжие 9 сезон

Все сериалы

все сериалы на PB.wtf

RePack

FAR CRY 5
  

Исключение из правил (Ирина Волкова) [2012, Россия, мелодрама, DVDRip] pb.wtf

Исключение из правил через торрент pb.wtf

Размер: 745 MB | Добавлен: 7 лет 5 мес. назад | Торрент скачан:163 раза
Скачать  

27-05-2013 05:56 Исключение из правил Скачать торрент  

Исключение из правил
Страна: Россия
Жанр: мелодрама
Год выпуска: 2012
Продолжительность: 01:33:52
Перевод: Не требуется [Лицензия]
Субтиры: нет

Режиссёр: Ирина Волкова

В ролях: Варвара Андреева, Анна Каменкова, Михаил Евланов, Максим Литовченко, Александр Баргман, Сергей Колтаков, Кирилл Жандаров, Татьяна Колганова, Сергей Власов, Дмитрий Подмозов, Оксана Базилевич, Александр Иванов, Александр Строев, Ирина Патракова, Ирина Основина, Мария Клешнина, Артем Крылов, Хельга Филиппова, Людмила Плохая, Сергей Мардарь, Сергей Бызгу, Мария Валешная, Александр Половцев, Егор Бакулин, Юлия Денисова, Виктория Глухих

Описание: Марина приходит спустя много лет на встречу с одноклассниками, которые обсуждают последние изменения в жизни друг друга. У Марины за эти годы ничего не изменилось — в разводе, живет с мамой, работает в школе. Взглянув на себя глазами одноклассников, Марина уезжает из Петербурга в Москву, чтобы радикально изменить свою жизнь…

Качество видео: DVDRip
Формат видео: AVI
Видео кодек: XviD
Аудио кодек: MP3
Видео: 656x368 (1.78:1), 25 fps, XviD build 50 ~972 kbps avg, 0.16 bit/pixel
Аудио: 48 kHz, MPEG Layer 3, 2 ch, ~128.00 kbps avg
Раздача от:
D:Iskljuchenie.iz.pravil.2012.DVDRip.745 [YTN]_by_dexter_lex.avi
General
Complete name : D:Iskljuchenie.iz.pravil.2012.DVDRip.745 [YTN]_by_dexter_lex.avi
Format : AVI
Format/Info : Audio Video Interleave
File size : 745 MiB
Duration : 1h 33mn
Overall bit rate : 1 110 Kbps
Writing application : VirtualDubMod 1.5.10.3 | www.virtualdub-fr.org || (build 2550/release)
Writing library : VirtualDubMod build 2550/release
Video #0
ID : 0
Format : MPEG-4 Visual
Format profile : Advanced Simple@L5
Format settings, BVOP : 1
Format settings, QPel : No
Format settings, GMC : No warppoints
Format settings, Matrix : Custom
Codec ID : XVID
Codec ID/Hint : XviD
Duration : 1h 33mn
Bit rate : 972 Kbps
Width : 656 pixels
Height : 368 pixels
Display aspect ratio : 1.78:1
Frame rate : 25.000 fps
Color space : YUV
Chroma subsampling : 4:2:0
Bit depth : 8 bits
Scan type : Progressive
Compression mode : Lossy
Bits/(Pixel*Frame) : 0.161
Stream size : 652 MiB (88%)
Writing library : XviD 1.2.1 (UTC 2008-12-04)
Audio #1
ID : 1
Format : MPEG Audio
Format version : Version 1
Format profile : Layer 3
Codec ID : 55
Codec ID/Hint : MP3
Duration : 1h 33mn
Bit rate mode : Constant
Bit rate : 128 Kbps
Channel(s) : 2 channels
Sampling rate : 48.0 KHz
Compression mode : Lossy
Stream size : 85.9 MiB (12%)
Alignment : Aligned on interleaves
Interleave, duration : 40 ms (1.00 video frame)
Interleave, preload duration : 504 ms
Writing library : LAME3.99r
Encoding settings : -m s -V 4 -q 2 -lowpass 17 -b 128
pb.wtf



Скачать Исключение из правил через торрент http://i47.fastpic.ru/big/2013/0526/1f/9c8b5daf020ed89ffa1691a0ec37b11f.jpg Скачать фильм Исключение из правил через торрент бесплантно в хорошем качестве Описание: Марина приходит спустя много лет на встречу с одноклассниками, которые обсуждают последние изменения в жизни друг друга. У Марины ... 10 10 1
Info! Золотая раздача, скачанное не засчитывается.
Торрент: Зарегистрирован [2013-05-27 05:56] · скачан: 163 раз
Статус: √ проверено
Размер: 745 MB
Как cкачать? Как скачать Исключение из правил через торрент | qTorrent

% Раздел Тема Автор DL S | L
Наши новые фильмы 2012 [ 1.46 GB ] Исключение из правил [2012 Россия DVDRip] dexter lex Скачать
1 | 0
Наши сериалы [ 6.13 GB ] Исключение из правил / Серии 1-2 из 2 [2012 DVD9] R5 voovaz Скачать
1 | 0

28-11-2019 20:33  

Отключить всю рекламу на сайте

    Дорогой пользователь! Огромная просьба, поблагодарите релизера, оцените раздачу и оставьте свои комментарий, если Вы скачали Исключение из правил через торрент бесплатно! Внесите свою лепту в развитие PiratBit!
    Комментировать посты могут только пользователи прошедшие не сложную регистрацию
    Показать сообщения:    

    Исключение из правил через торрент
    Скачать бесплатно Исключение из правил
    Исключение из правил скачать торрент
    Исключение из правил смотреть онлайн
    Cкачать фильм Исключение из правил бесплатно
    Исключение из правил скачать торрент в хорошем качестве
    Исключение из правил смотреть онлайн бесплатно в хорошем качестве


    Вы не можете начинать темы
    Вы не можете отвечать на сообщения
    Вы не можете редактировать свои сообщения
    Вы не можете удалять свои сообщения
    Вы не можете голосовать в опросах
    Вы не можете прикреплять файлы к сообщениям
    Вы можете скачивать файлы