1 сезон

1 сезон

iTunes

1

КиноПоиск HD

Кинопоиск HD

iTunes

13

1 сезон

RePack

30

Ultimate

ВАЖНО

ИГРА 18+

pack

RePack

MK11
pack

Легкие деньги

RePack

jed

RePack

fifa19

RePack

RDR2

RePack

NEED FOR SPEED™ PAYBACK

4 сезон

9 сезон

Бесстыжие 9 сезон

Все сериалы

все сериалы на PB.wtf

RePack

FAR CRY 5
  
Magnet ссылка

50 первых поцелуев / 50 First Dates (Питер Сигал / Peter Segal) [2004, комедия, мелодрама, BDRip-AVC] Дублированный pb.wtf

50 первых поцелуев через торрент pb.wtf

Размер: 2.18 GB | Добавлен: 7 лет 10 мес. назад | Торрент скачан:829 раз
Скачать  

27-05-2013 06:19 50 первых поцелуев Скачать торрент  

50 первых поцелуев / 50 First Dates
«The ultimate bachelor will face the ultimate challenge.»


Год выпуска: 2004
Страна: США
Жанр: комедия, мелодрама
Продолжительность: 01:39:03
Перевод: профессиональный (полное дублирование CEE)
Оригинальная аудиодорожка: английский
Русские субтитры: есть
Навигация по главам: есть
Режиссер: Питер Сигал / Peter Segal
В ролях: Адам Сэндлер, Дрю Бэрримор, Роб Шнайдер, Шон Эстин, Люсия Струс, Дэн Эйкройд, Эми Хилл, Аллен Коверт, Блейк Кларк, Майя Рудольф
Описание: Генри Рот влюбляется в очаровательную Люси. Несмотря на небольшие помехи, уже к вечеру настойчивому Ромео удается добиться взаимности красавицы.
Молодые люди счастливы и уверены, что их любовь продлится вечно.
Увы, из-за последствий автомобильной аварии, девушка утром не помнит ничего из того, что произошло накануне.
Несмотря на это, Генри не намерен сдаваться и собирается бороться за свою любовь, даже если ради этого ему и придется влюблять в себя Люси каждый день!

Kinopoisk.ru | IMDB | Sample |
Качество: BDRip-AVC
Формат: MKV
Видео кодек: H.264
Аудио кодек: AС3
Видео: H.264, 1080x450, 23.976 fps, ~2382 kbps
Аудио 1: Русский: 48 kHz, AC3, 3/2 (L,C,R,l,r) + LFE ch, ~384.00 kbps |(дублированный) CEE|
Аудио 2: Английский: 48 kHz, AC3, 3/2 (L,C,R,l,r) + LFE ch, ~384.00 kbps |English|
Формат субтитров: softsub (SRT) | русские (надписи и т.п.), русские (с BD CEE), английские
Съемки картины начались 19-го марта 2003 года на Гавайях, а затем продлились в Лос-Анджелесе. Закончились съемки в июне 2003 года. Первоначально проект разрабатывался под Кэмерон Диаз, а режиссером должен был выступить Джей Роач.
Дрю Бэрримор и Адам Сэндлер ранее встречались на съемочной площадке «Певца на свадьбе».
Первоначально картина называлась «50 First Kisses», потом было изменено на «Fifty First Dates». Далее «Fifty» заменили на «50» и получилось «50 First Dates».
На роль Люси претендовала Джулия Робертс.
x264 [info]: frame I:1475 Avg QP:18.52 size: 66861 PSNR Mean Y:45.61 U:48.86 V:49.99 Avg:46.53 Global:46.22
x264 [info]: frame P:29279 Avg QP:20.87 size: 26154 PSNR Mean Y:43.87 U:47.59 V:48.56 Avg:44.78 Global:44.30
x264 [info]: frame B:111758 Avg QP:23.07 size: 8101 PSNR Mean Y:42.56 U:47.20 V:48.36 Avg:43.68 Global:43.31
x264 [info]: consecutive B-frames: 0.6% 1.4% 5.2% 24.9% 14.3% 44.6% 4.7% 2.4% 1.8%
x264 [info]: mb I I16..4: 6.0% 78.0% 16.0%
x264 [info]: mb P I16..4: 0.9% 9.8% 1.9% P16..4: 38.1% 26.6% 14.3% 0.0% 0.0% skip: 8.4%
x264 [info]: mb B I16..4: 0.1% 1.0% 0.3% B16..8: 41.0% 11.1% 3.0% direct: 6.2% skip:37.4% L0:42.1% L1:42.5% BI:15.4%
x264 [info]: 8x8 transform intra:77.2% inter:69.5%
x264 [info]: direct mvs spatial:99.2% temporal:0.8%
x264 [info]: coded y,uvDC,uvAC intra: 86.9% 82.0% 45.6% inter: 28.8% 20.7% 1.8%
x264 [info]: i16 v,h,dc,p: 37% 21% 6% 37%
x264 [info]: i8 v,h,dc,ddl,ddr,vr,hd,vl,hu: 18% 12% 4% 8% 12% 12% 12% 10% 12%
x264 [info]: i4 v,h,dc,ddl,ddr,vr,hd,vl,hu: 23% 13% 3% 6% 12% 12% 12% 8% 11%
x264 [info]: i8c dc,h,v,p: 32% 29% 22% 17%
x264 [info]: Weighted P-Frames: Y:5.6% UV:3.1%
x264 [info]: ref P L0: 46.3% 10.8% 16.7% 7.7% 5.5% 4.2% 3.2% 2.0% 1.5% 1.2% 0.9% 0.1% 0.0%
x264 [info]: ref B L0: 75.1% 11.8% 5.1% 2.6% 1.8% 1.4% 1.1% 0.6% 0.4% 0.2%
x264 [info]: ref B L1: 93.8% 6.2%
x264 [info]: SSIM Mean Y:0.9749311 (16.009db)
x264 [info]: PSNR Mean Y:42.865 U:47.298 V:48.417 Avg:43.935 Global:43.523 kb/s:2381.95
General
Unique ID : 187748168849265820118217443334275534390 (0x8D3EFB66E98CF859881417C6CBDD0E36)
Complete name : I:Torrents50.First.Dates.SDM.barm.mkv
Format : Matroska
File size : 2.18 GiB
Duration : 1h 39mn
Overall bit rate : 3 153 Kbps
Movie name : 50 First Dates
Encoded date : UTC 2011-01-11 19:36:00
Writing application : mkvmerge v4.4.0 ('Die Wiederkehr') built on Oct 31 2010 21:52:48
Writing library : libebml v1.0.0 + libmatroska v1.0.0
Cover : Yes / Yes
Video
ID : 1
Format : AVC
Format/Info : Advanced Video Codec
Format profile : High@L4.0
Format settings, CABAC : Yes
Format settings, ReFrames : 11 frames
Codec ID : V_MPEG4/ISO/AVC
Duration : 1h 39mn
Bit rate : 2 382 Kbps
Width : 1 080 pixels
Height : 450 pixels
Display aspect ratio : 2.40:1
Frame rate : 23.976 fps
Color space : YUV
Chroma subsampling : 4:2:0
Bit depth : 8 bits
Scan type : Progressive
Bits/(Pixel*Frame) : 0.204
Stream size : 1.61 GiB (74%)
Title : 50 First Dates
Writing library : x264 core 112 r1834 a51816a
Encoding settings : cabac=1 / ref=11 / deblock=1:-2:-1 / analyse=0x3:0x113 / me=umh / subme=10 / psy=1 / psy_rd=0.95:0.00 / mixed_ref=1 / me_range=32 /
chroma_me=1 / trellis=2 / 8x8dct=1 / cqm=0 / deadzone=21,11 / fast_pskip=1 / chroma_qp_offset=-2 / threads=6 / sliced_threads=0 / nr=0 / decimate=1 / interlaced=0 /
constrained_intra=0 / bframes=8 / b_pyramid=2 / b_adapt=2 / b_bias=0 / direct=3 / weightb=1 / open_gop=0 / weightp=2 / keyint=250 / keyint_min=23 / scenecut=40 /
intra_refresh=0 / rc_lookahead=60 / rc=2pass / mbtree=1 / bitrate=2382 / ratetol=1.0 / qcomp=0.65 / qpmin=0 / qpmax=51 / qpstep=4 / cplxblur=20.0 / qblur=0.5 /
vbv_maxrate=25000 / vbv_bufsize=31250 / ip_ratio=1.35 / aq=2:0.90 / zones=131370,134825,b=0.8/134826,142511,b=0.7 / nal_hrd=none
Language : English
Matrix coefficients : BT.709-5, BT.1361, IEC 61966-2-4 709, SMPTE RP177
Audio #1
ID : 2
Format : AC-3
Format/Info : Audio Coding 3
Mode extension : CM (complete main)
Codec ID : A_AC3
Duration : 1h 39mn
Bit rate mode : Constant
Bit rate : 384 Kbps
Channel(s) : 6 channels
Channel positions : Front: L C R, Side: L R, LFE
Sampling rate : 48.0 KHz
Bit depth : 16 bits
Compression mode : Lossy
Stream size : 272 MiB (12%)
Title : Dubljaz CEE, 48 kHz, AC3, 3/2 (L,C,R,l,r) + LFE ch, ~384.00 kbps
Language : Russian
Audio #2
ID : 3
Format : AC-3
Format/Info : Audio Coding 3
Mode extension : CM (complete main)
Codec ID : A_AC3
Duration : 1h 39mn
Bit rate mode : Constant
Bit rate : 384 Kbps
Channel(s) : 6 channels
Channel positions : Front: L C R, Side: L R, LFE
Sampling rate : 48.0 KHz
Bit depth : 16 bits
Compression mode : Lossy
Stream size : 272 MiB (12%)
Title : Original, 48 kHz, AC3, 3/2 (L,C,R,l,r) + LFE ch, ~384.00 kbps
Language : English
Text #1
ID : 4
Format : UTF-8
Codec ID : S_TEXT/UTF8
Codec ID/Info : UTF-8 Plain Text
Title : Forced
Language : Russian
Text #2
ID : 5
Format : UTF-8
Codec ID : S_TEXT/UTF8
Codec ID/Info : UTF-8 Plain Text
Title : Full
Language : Russian
Text #3
ID : 6
Format : UTF-8
Codec ID : S_TEXT/UTF8
Codec ID/Info : UTF-8 Plain Text
Title : English
Language : English
Menu
00:00:00.000 : en:1. Start
00:03:04.240 : en:2. Ula
00:05:14.880 : en:3. Saving a Sick Animal
00:11:09.440 : en:4. Henry Meets Lucy
00:20:29.840 : en:5. The Stray Cow Incident
00:23:40.520 : en:6. Another Day, Another Birthday
00:30:17.680 : en:7. A $20 Bet
00:32:58.720 : en:8. The "I Can't Read" Approach
00:39:17.480 : en:9. The Outdoors Approach
00:44:26.520 : en:10. Lucy Learns the Truth
00:49:10.800 : en:11. Dr. Keats
00:53:52.560 : en:12. A Secret Admirer
01:01:04.240 : en:13. First Kisses
01:06:02.360 : en:14. A Song for Lucy
01:08:29.120 : en:15. Strange Bedfellows
01:10:58.760 : en:16. Lucy's Journal
01:23:23.040 : en:17. The Man of Her Dreams
01:24:59.240 : en:18. Rainbow's End
pb.wtf



Скачать 50 первых поцелуев через торрент http://s43.radikal.ru/i100/1305/8c/7d4d21df041a.jpg Скачать фильм 50 первых поцелуев через торрент бесплантно в хорошем качестве Описание: Генри Рот влюбляется в очаровательную Люси. Несмотря на небольшие помехи, уже к вечеру настойчивому Ромео удается добиться ... 10 10 12
Info! Золотая раздача, скачанное не засчитывается.
Торрент: Зарегистрирован [2013-05-27 06:19] · скачан: 829 раз
Статус: √ проверено
Размер: 2.18 GB
Как cкачать? Как скачать 50 первых поцелуев через торрент | UTorrent

28-11-2019 20:33  

Отключить всю рекламу на сайте

27-05-2013 06:26 50 первых поцелуев Скачать торрент  

Фильм просто шикарный, один из лучших Сэндлера :)pb.wtf



27-05-2013 06:28 50 первых поцелуев Скачать торрент  

а че скрины повторяются по 2 раза??pb.wtf



27-05-2013 06:38 50 первых поцелуев Скачать торрент  

AnTuxPucT777 писал(а):

а че скрины повторяются по 2 раза??

надпись Rip vs Sourse говорит о сравнении Рип против Источникаpb.wtf



27-05-2013 12:47 50 первых поцелуев Скачать торрент  

кто не видел - смотреть обязательно.pb.wtf



    Дорогой пользователь! Огромная просьба, поблагодарите релизера, оцените раздачу и оставьте свои комментарий, если Вы скачали 50 первых поцелуев через торрент бесплатно! Внесите свою лепту в развитие PiratBit!
    Комментировать посты могут только пользователи прошедшие не сложную регистрацию
    Показать сообщения:    

    50 первых поцелуев через торрент
    Скачать бесплатно 50 первых поцелуев
    50 первых поцелуев скачать торрент
    50 первых поцелуев смотреть онлайн
    Cкачать фильм 50 первых поцелуев бесплатно
    50 первых поцелуев скачать торрент в хорошем качестве
    50 первых поцелуев смотреть онлайн бесплатно в хорошем качестве


    Вы не можете начинать темы
    Вы не можете отвечать на сообщения
    Вы не можете редактировать свои сообщения
    Вы не можете удалять свои сообщения
    Вы не можете голосовать в опросах
    Вы не можете прикреплять файлы к сообщениям
    Вы можете скачивать файлы