1 сезон

1 сезон

iTunes

1

КиноПоиск HD

Кинопоиск HD

iTunes

13

1 сезон

RePack

30

Новинка

ВАЖНО

ИГРА 18+

pack

RePack

MK11
pack

Легкие деньги

RePack

jed

RePack

fifa19

RePack

RDR2

RePack

NEED FOR SPEED™ PAYBACK

4 сезон

9 сезон

Бесстыжие 9 сезон

Все сериалы

все сериалы на PB.wtf

RePack

FAR CRY 5
  
Magnet ссылка

Таинственный лес / The Village (М. Найт Шьямалан) [2004 г., триллер, мелодрама, HDTVRip, Дубляж + Оригинал] pb.wtf

Таинственный лес через торрент pb.wtf

Размер: 2.18 GB | Добавлен: 7 лет 10 мес. назад | Торрент скачан:253 раза
Скачать  

27-05-2013 09:44 Таинственный лес Скачать торрент  

Таинственный лес / The Village

Год выпуска: 2004
Страна: США
Производство: Blinding Edge Pictures, Scott Rudin Productions
Жанр: триллер, мелодрама
Продолжительность: 01:47:51
Перевод: Дубляж + Оригинал

Режиссер: М. Найт Шьямалан
Продюссер: Сэм Мерсер, Скотт Рудин, М. Найт Шьямалан
Сценарий: М. Найт Шьямалан
Бюджет: $60 000 000
Премьера в мире: 26 июля 2004



В ролях: Брайс Даллас Ховард, Хоакин Феникс, Эдриан Броуди, Уильям Хёрт, Сигурни Уивер, Брендан Глисон, Черри Джонс, Селия Уэстон, Джон Кристофер Джонс, Фрэнк Коллисон, Александр Баргман, Евгений Иванов, Сергей Паршин, Валерий Никитенко, Анатолий Дубанов,

Описание: Пенсильвания. Жители деревни Ковингтон верят, что в местном лесу обитают мифические существа, и никогда не входят в лес и не покидают своей деревни.Но однажды любознательный и своевольный Люций Хант, уставший жить в полной изоляции от внешнего мира, решает нарушить табу и выходит за пределы деревни...



Сэмпл / Трейлер

  • Качество: HDTVRip
  • Формат: AVI
  • Видео кодек: XviD
  • Аудио кодек: AC3
  • Видео: MPEG4, XviD, 720x384 (1.850), 23.976 fps, 2 103 Kbps (0.317 bit/pixel)
  • Аудио#1: AC-3, 48.0 KHz, 6 ch, 384 Kbps, CBR (Russian)
  • Аудио#2: AC-3, 48.0 KHz, 6 ch, 384 Kbps, CBR (English)
    Формат : AVI
    Формат/Информация : Audio Video Interleave
    Профиль формата : OpenDML
    Размер файла : 2,18 Гбайт
    Продолжительность : 1 ч. 47 м.
    Общий поток : 2888 Кбит/сек
    Название фильма : The Village.2004.HDTVRip.kep
    Жанр : Thriller, Romance
    Программа кодирования : VirtualDubModRus 1.5.10.2 (build 2542/release)
    Формат оригинала/Имя : Movie
    Правообладатель : Rip prepared for piratbit.cc
    Примечание : Rip ot kep

    Видео
    Идентификатор : 0
    Формат : MPEG-4 Visual
    Профиль формата : Advanced Simple@L5
    Параметр BVOP формата : 1
    Параметр QPel формата : Нет
    Параметр GMC формата : Без точки перехода
    Параметр матрицы формата : Default (MPEG)
    Идентификатор кодека : XVID
    Идентификатор кодека/Подсказка : XviD
    Продолжительность : 1 ч. 47 м.
    Битрейт : 2103 Кбит/сек
    Ширина : 720 пикселей
    Высота : 384 пикселя
    Соотношение сторон : 1,85:1
    Частота кадров : 23,976 кадра/сек
    Цветовое пространство : YUV
    Субдискретизация насыщенности : 4:2:0
    Битовая глубина : 8 бит
    Тип развёртки : Прогрессивная
    Метод сжатия : С потерями
    Бит/(Пиксели*Кадры) : 0.317
    Размер потока : 1,58 Гбайт (73%)
    Библиотека кодирования : XviD 1.2.1 (UTC 2008-12-04)

    Аудио #1
    Идентификатор : 1
    Формат : AC-3
    Формат/Информация : Audio Coding 3
    Расширение режима : CM (complete main)
    Параметр Endianness формата : Big
    Идентификатор кодека : 2000
    Продолжительность : 1 ч. 47 м.
    Вид битрейта : Постоянный
    Битрейт : 384 Кбит/сек
    Каналы : 6 каналов
    Расположение каналов : Front: L C R, Side: L R, LFE
    Частота : 48,0 КГц
    Битовая глубина : 16 бит
    Метод сжатия : С потерями
    Размер потока : 296 Мбайт (13%)
    Выравнивание : Разделение по промежуткам
    Продолжительность промежутка : 42 мс. (1,00 видеокадр)
    Время предзагрузки промежутка : 500 мс.

    Аудио #2
    Идентификатор : 2
    Формат : AC-3
    Формат/Информация : Audio Coding 3
    Расширение режима : CM (complete main)
    Параметр Endianness формата : Big
    Идентификатор кодека : 2000
    Продолжительность : 1 ч. 47 м.
    Вид битрейта : Постоянный
    Битрейт : 384 Кбит/сек
    Каналы : 6 каналов
    Расположение каналов : Front: L C R, Side: L R, LFE
    Частота : 48,0 КГц
    Битовая глубина : 16 бит
    Метод сжатия : С потерями
    Размер потока : 296 Мбайт (13%)
    Выравнивание : Разделение по промежуткам
    Продолжительность промежутка : 42 мс. (1,00 видеокадр)
    Время предзагрузки промежутка : 500 мс.
    скриншот   скриншот   скриншот   скриншот   скриншот   pb.wtf



  • Скачать Таинственный лес через торрент http://i2.imageban.ru/out/2013/05/26/5ce741eca1c5f7dffbee402c56376fd8.png Скачать фильм Таинственный лес через торрент бесплантно в хорошем качестве Описание: Пенсильвания. Жители деревни Ковингтон верят, что в местном лесу обитают мифические существа, и никогда не входят в лес и не ... 9.3 10 16
    Info! Золотая раздача, скачанное не засчитывается.
    Торрент: Зарегистрирован [2013-05-27 09:44] · скачан: 253 раз
    Статус: √ проверено
    Размер: 2.18 GB
    Как cкачать? Как скачать Таинственный лес через торрент | UTorrent

    % Раздел Тема Автор DL S | L
    Фильмы 2001-2005 [ 745 MB ] Таинственный лес / The Village [2004 DVDRip] VintMosina Скачать
    1 | 0

    28-11-2019 20:33  

    Отключить всю рекламу на сайте

    27-05-2013 10:06 Таинственный лес Скачать торрент  

    Ппц, убери последний скрин он всю интригу выдаёт.pb.wtf



      Дорогой пользователь! Огромная просьба, поблагодарите релизера, оцените раздачу и оставьте свои комментарий, если Вы скачали Таинственный лес через торрент бесплатно! Внесите свою лепту в развитие PiratBit!
      Комментировать посты могут только пользователи прошедшие не сложную регистрацию
      Показать сообщения:    

      Таинственный лес через торрент
      Скачать бесплатно Таинственный лес
      Таинственный лес скачать торрент
      Таинственный лес смотреть онлайн
      Cкачать фильм Таинственный лес бесплатно
      Таинственный лес скачать торрент в хорошем качестве
      Таинственный лес смотреть онлайн бесплатно в хорошем качестве


      Вы не можете начинать темы
      Вы не можете отвечать на сообщения
      Вы не можете редактировать свои сообщения
      Вы не можете удалять свои сообщения
      Вы не можете голосовать в опросах
      Вы не можете прикреплять файлы к сообщениям
      Вы можете скачивать файлы