1 сезон

1 сезон

iTunes

1

КиноПоиск HD

Кинопоиск HD

iTunes

13

1 сезон

RePack

30

Ultimate

ВАЖНО

ИГРА 18+

pack

RePack

MK11
pack

Легкие деньги

RePack

jed

RePack

fifa19

RePack

RDR2

RePack

NEED FOR SPEED™ PAYBACK

4 сезон

9 сезон

Бесстыжие 9 сезон

Все сериалы

все сериалы на PB.wtf

RePack

FAR CRY 5
  
Magnet ссылка

Дочь Робин Гуда: Принцесса воров / Princess of Thieves (Питер Хьюит) [2001 г., боевик, приключения, HDRip, Профессиональный + Оригинал] pb.wtf

Дочь Робин Гуда: Принцесса воров через торрент pb.wtf

Размер: 2.18 GB | Добавлен: 7 лет 10 мес. назад | Торрент скачан:219 раз
Скачать  

28-05-2013 05:18 Дочь Робин Гуда: Принцесса воров Скачать торрент  

Дочь Робин Гуда: Принцесса воров / Princess of Thieves

Год выпуска: 2001
Страна: США
Производство: Granada Entertainment USA
Жанр: боевик, приключения
Продолжительность: 01:27:47
Перевод: Профессиональный |Многоголосый, закадровый| + Оригинал

Режиссер: Питер Хьюит
Продюссер: Крэйг МаНил, Джон Кауэн, Джофф Гриффит
Сценарий: Робин Лернер
Премьера в мире: 11 марта 2001



В ролях: Ханна Крессвелл, Дэвид Баррасс, Малкольм МакДауэлл, Кира Найтли, Дель Синнотт, Стюарт Уилсон, Криспин Леттс, Роджер Эштон-Гриффитс, Джонатан Хайд, Адам Райан,

Описание: Пока благородный Робин Гуд верно служит британскому трону, его дочь, очаровательная юная Гвин не желает сидеть дома. В тайне от отца она научилась метко стрелять из лука и крепко сидеть в седле, и теперь эти навыки сослужат ей верную службу.После трагической смерти Ричарда Львиное Сердце коварный принц Джон бросает в тюрьму Робин Гуда и приказывает своим головорезам убить наследника престола принца Филиппа. Он намерен во что бы то ни стало завладеть короной, но его планы ловко сорвет отважная Гвин.Переодевшись юношей, она вместе с Филиппом переживет удивительные и опасные приключения, чтобы проникнуть в логово подлых врагов, вызволить из плена отца и жестоко покарать злобного принца Джона.



Сэмпл / Трейлер

  • Качество: HDRip
  • Формат: AVI
  • Видео кодек: XviD
  • Аудио кодек: AC3
  • Видео: MPEG4, XviD, 720x384 (1.850), 23.976 fps, 2 252 Kbps (0.340 bit/pixel)
  • Аудио#1: AC-3, 48.0 KHz, 6 ch, 384 Kbps, CBR (Russian)
  • Аудио#2: AC-3, 48.0 KHz, 6 ch, 448 Kbps, CBR (Russian) |Карусель|
  • Аудио#3: AC-3, 48.0 KHz, 6 ch, 448 Kbps, CBR (English)
    Формат : AVI
    Формат/Информация : Audio Video Interleave
    Профиль формата : OpenDML
    Размер файла : 2,18 Гбайт
    Продолжительность : 1 ч. 27 м.
    Общий поток : 3553 Кбит/сек
    Название фильма : Princess of Thieves.2001.HDRip.kep
    Жанр : Action, Adventure
    Программа кодирования : VirtualDubModRus 1.5.10.2 (build 2542/release)
    Формат оригинала/Имя : Movie
    Правообладатель : Rip prepared for piratbit.cc
    Примечание : Rip ot kep

    Видео
    Идентификатор : 0
    Формат : MPEG-4 Visual
    Профиль формата : Advanced Simple@L5
    Параметр BVOP формата : 1
    Параметр QPel формата : Нет
    Параметр GMC формата : Без точки перехода
    Параметр матрицы формата : Default (MPEG)
    Идентификатор кодека : XVID
    Идентификатор кодека/Подсказка : XviD
    Продолжительность : 1 ч. 27 м.
    Битрейт : 2252 Кбит/сек
    Ширина : 720 пикселей
    Высота : 384 пикселя
    Соотношение сторон : 1,85:1
    Частота кадров : 23,976 кадра/сек
    Цветовое пространство : YUV
    Субдискретизация насыщенности : 4:2:0
    Битовая глубина : 8 бит
    Тип развёртки : Прогрессивная
    Метод сжатия : С потерями
    Бит/(Пиксели*Кадры) : 0.340
    Размер потока : 1,38 Гбайт (63%)
    Библиотека кодирования : XviD 1.2.1 (UTC 2008-12-04)

    Аудио #1
    Идентификатор : 1
    Формат : AC-3
    Формат/Информация : Audio Coding 3
    Расширение режима : CM (complete main)
    Параметр Endianness формата : Big
    Идентификатор кодека : 2000
    Продолжительность : 1 ч. 27 м.
    Вид битрейта : Постоянный
    Битрейт : 384 Кбит/сек
    Каналы : 6 каналов
    Расположение каналов : Front: L C R, Side: L R, LFE
    Частота : 48,0 КГц
    Битовая глубина : 16 бит
    Метод сжатия : С потерями
    Размер потока : 241 Мбайт (11%)
    Выравнивание : Разделение по промежуткам
    Продолжительность промежутка : 42 мс. (1,00 видеокадр)
    Время предзагрузки промежутка : 500 мс.

    Аудио #2
    Идентификатор : 2
    Формат : AC-3
    Формат/Информация : Audio Coding 3
    Расширение режима : CM (complete main)
    Параметр Endianness формата : Big
    Идентификатор кодека : 2000
    Продолжительность : 1 ч. 27 м.
    Вид битрейта : Постоянный
    Битрейт : 448 Кбит/сек
    Каналы : 6 каналов
    Расположение каналов : Front: L C R, Side: L R, LFE
    Частота : 48,0 КГц
    Битовая глубина : 16 бит
    Метод сжатия : С потерями
    Размер потока : 281 Мбайт (13%)
    Выравнивание : Разделение по промежуткам
    Продолжительность промежутка : 42 мс. (1,00 видеокадр)
    Время предзагрузки промежутка : 500 мс.

    Аудио #3
    Идентификатор : 3
    Формат : AC-3
    Формат/Информация : Audio Coding 3
    Расширение режима : CM (complete main)
    Параметр Endianness формата : Big
    Идентификатор кодека : 2000
    Продолжительность : 1 ч. 27 м.
    Вид битрейта : Постоянный
    Битрейт : 448 Кбит/сек
    Каналы : 6 каналов
    Расположение каналов : Front: L C R, Side: L R, LFE
    Частота : 48,0 КГц
    Битовая глубина : 16 бит
    Метод сжатия : С потерями
    Размер потока : 281 Мбайт (13%)
    Выравнивание : Разделение по промежуткам
    Продолжительность промежутка : 42 мс. (1,00 видеокадр)
    Время предзагрузки промежутка : 500 мс.
    скриншот   скриншот   скриншот   скриншот   скриншот   pb.wtf



  • Скачать Дочь Робин Гуда: Принцесса воров через торрент http://i2.imageban.ru/out/2013/05/27/b7c5711dee7cf864a6fd56180c5c32f7.png Скачать фильм Дочь Робин Гуда: Принцесса воров через торрент бесплантно в хорошем качестве Описание: Пока благородный Робин Гуд верно служит британскому трону, его дочь, очаровательная юная Гвин не желает сидеть дома. В тайне от ... 9.7 10 15
    Info! Золотая раздача, скачанное не засчитывается.
    Торрент: Зарегистрирован [2013-05-28 05:18] · скачан: 219 раз
    Статус: √ проверено
    Размер: 2.18 GB
    Как cкачать? Как скачать Дочь Робин Гуда: Принцесса воров через торрент | UTorrent

    % Раздел Тема Автор DL S | L
    Фильмы 2001-2005 [ 1.45 GB ] Дочь Робин Гуда: Принцесса воров / Princess of Thieves [2001 ... HDRip] Steel Скачать
    1 | 0

    28-11-2019 20:33  

    Отключить всю рекламу на сайте


    28-05-2013 08:26 Дочь Робин Гуда: Принцесса воров Скачать торрент  

    Спасибо посмотрим=)pb.wtf



      Дорогой пользователь! Огромная просьба, поблагодарите релизера, оцените раздачу и оставьте свои комментарий, если Вы скачали Дочь Робин Гуда: Принцесса воров через торрент бесплатно! Внесите свою лепту в развитие PiratBit!
      Комментировать посты могут только пользователи прошедшие не сложную регистрацию
      Показать сообщения:    

      Дочь Робин Гуда: Принцесса воров через торрент
      Скачать бесплатно Дочь Робин Гуда: Принцесса воров
      Дочь Робин Гуда: Принцесса воров скачать торрент
      Дочь Робин Гуда: Принцесса воров смотреть онлайн
      Cкачать фильм Дочь Робин Гуда: Принцесса воров бесплатно
      Дочь Робин Гуда: Принцесса воров скачать торрент в хорошем качестве
      Дочь Робин Гуда: Принцесса воров смотреть онлайн бесплатно в хорошем качестве


      Вы не можете начинать темы
      Вы не можете отвечать на сообщения
      Вы не можете редактировать свои сообщения
      Вы не можете удалять свои сообщения
      Вы не можете голосовать в опросах
      Вы не можете прикреплять файлы к сообщениям
      Вы можете скачивать файлы