Ссылка на приватное зеркало нашего сайта всего за 1$. Внимание количество ограничено!!!

2 сезон

iTunes

1 сезон

1

iTunes

iTunes

iTunes

1 сезон

RePack

30

ИГРА 18+

pack

ВАЖНО

!!Акция!!

Alien_RageХит недели

RePack

MK11
pack

Забери бонус

RePack

jed

!!Акция!!

Alien_Rage

RePack

fifa19

RePack

Assassins Creed: Odyssey

RePack

NEED FOR SPEED™ PAYBACK

4 сезон

9 сезон

Бесстыжие 9 сезон

Все сериалы

все сериалы на PB.wtf

RePack

FAR CRY 5
  

Морис Ришар / Maurice Richard (Чарльз Бинами) [2005 г., драма, биография, спорт, BDRip 720p., Fre+Eng+Субтитры (RUS)] pb.wtf

Морис Ришар через торрент pb.wtf

Размер: 4.26 GB | Добавлен: 7 лет 4 мес. назад | Торрент скачан:28 раз
Скачать  

28-05-2013 07:33 Морис Ришар Скачать торрент  

Морис Ришар / Maurice Richard

Год выпуска: 2005
Страна: Канада
Жанр: драма, биография, спорт,
Продолжительность: 02:03:41
Перевод: Субтитры
Оригинал: французский и английский (часть персонажей говорит по-английски, а часть — по-французски)
Субтитры: русские, английские, французские

Режиссер: Чарльз Бинами
Продюссер: Дэниэл Луис, Дениз Робер
Сценарий: Кен Скотт

Бюджет: CAD 8 000 000
Премьера в мире: 25 ноября 2005

КиноПоиск | IMDb

В ролях: Рой Дюпюи, Жюли ЛеБретон, Стивен МакХэтти, Патрис Робитейлл, Майк Риччи, Франсуа Ланглуа-Вальере, Винсент Лекавалье, Шон Эйвери, Мишель Баррет, Браголи Пэт,

Описание: Морис Ришар — легенда НХЛ и мирового хоккея, играл в «Монреаль Канадиенс» правым нападающим с 42-го по 1960-ый.
За его спокойной внешностью обычного человека скрывались твердость, страсть и сверхъестественный талант, которые и превратили молодого игрока в Ракету (как его называли болельщики).
Хотя его таланта и умений и было достаточно для того, чтобы попасть в Монреаль Канадиенс, частые травмы стоили ему доверия команды и болельщиков. В то время в Канаде людям разных культур (англофонным и франкофонным канадцам) отказывалось в равенстве, и он, будучи франкоговорящим хоккеистом (pea soup), высмеивался критиками за то, что «слишком слаб и хрупок для хоккея».
Морис Ришар бросил вызов социальному и хоккейному неравенству и стал первым игроком, который когда-либо забивал 50 голов в 50 играх. Он играл с изяществом, скоростью и уверенностью, которые сделали его легендой. Он играл в хоккей нового уровня, который был пока еще недоступен большинству игроков, привыкших к прямолинейным силовым способам игры.
Съемки фильма готовились при участии самого Мориса Ришара (он дожил до 80 лет), его жены и коллег. Сцены хоккейных баталий сделаны с документальной точностью.

Фильм на английском и французском языках, поскольку отражает реалии двуязычной Канады.

Качество: BDRip 720p
Формат: MKV
Видео кодек: AVC
Аудио кодек: AC3
Видео: H.264/MPEG-4 AVC, 1280x720 (16/9), 4386 Kbps, 23.976fps
Аудио: AC3, 48000Hz, 6ch, 448 Kbps (английский и французский)
Субтитры#1: UTF-8 (русские)
Субтитры#2: UTF-8 (английские)
Субтитры#3: UTF-8 (французские)





General
Unique ID : 251825653818695408818658661384108577528 (0xBD73DB53AB2B293EABC7189E569712F8)
Complete name : D:DownloadsDownloadsdc_shara_downloadsMaurice_Richard.720p.mkv
Format : Matroska
Format version : Version 4 / Version 2
File size : 4.26 GiB
Duration : 2h 3mn
Overall bit rate : 4 932 Kbps
Encoded date : UTC 2013-05-24 05:18:36
Writing application : mkvmerge v6.2.0 ('Promised Land') built on Apr 28 2013 12:22:01
Writing library : libebml v1.3.0 + libmatroska v1.4.0

Video
ID : 1
Format : AVC
Format/Info : Advanced Video Codec
Format profile : Baseline@L3.1
Format settings, CABAC : No
Format settings, ReFrames : 1 frame
Format settings, GOP : M=1, N=12
Codec ID : V_MPEG4/ISO/AVC
Duration : 2h 3mn
Bit rate : 4 386 Kbps
Width : 1 280 pixels
Height : 720 pixels
Display aspect ratio : 16:9
Frame rate mode : Constant
Frame rate : 23.976 fps
Color space : YUV
Chroma subsampling : 4:2:0
Bit depth : 8 bits
Scan type : Progressive
Bits/(Pixel*Frame) : 0.198
Stream size : 3.79 GiB (89%)
Default : Yes
Forced : No

Audio
ID : 2
Format : AC-3
Format/Info : Audio Coding 3
Mode extension : CM (complete main)
Format settings, Endianness : Big
Codec ID : A_AC3
Duration : 2h 3mn
Bit rate mode : Constant
Bit rate : 448 Kbps
Channel(s) : 6 channels
Channel positions : Front: L C R, Side: L R, LFE
Sampling rate : 48.0 KHz
Bit depth : 16 bits
Compression mode : Lossy
Stream size : 396 MiB (9%)
Language : French
Default : Yes
Forced : No

Text #1
ID : 3
Format : UTF-8
Codec ID : S_TEXT/UTF8
Codec ID/Info : UTF-8 Plain Text
Language : Russian
Default : Yes
Forced : No

Text #2
ID : 4
Format : UTF-8
Codec ID : S_TEXT/UTF8
Codec ID/Info : UTF-8 Plain Text
Language : English
Default : No
Forced : No

Text #3
ID : 5
Format : UTF-8
Codec ID : S_TEXT/UTF8
Codec ID/Info : UTF-8 Plain Text
Language : French
Default : No
Forced : No


Морис Ришар скачать торрент


pb.wtf



Скачать Морис Ришар через торрент http://i46.fastpic.ru/big/2013/0525/7b/b27988afbc74b1c28a6eb8213f50837b.jpg Скачать фильм Морис Ришар через торрент бесплантно в хорошем качестве Описание: Морис Ришар — легенда НХЛ и мирового хоккея, играл в «Монреаль Канадиенс» правым нападающим с 42-го по 1960-ый.За его спокойной ... 7.8 10 4
Info! Золотая раздача, скачанное не засчитывается.
Торрент: Зарегистрирован [2013-05-28 07:33] · скачан: 28 раз
Статус: √ проверено
Размер: 4.26 GB
Как cкачать? Как скачать Морис Ришар через торрент | qTorrent



Последний раз редактировалось: f123123 (2013-05-29 15:06), всего редактировалось 6 раз(а)

28-11-2019 20:33  

Отключить всю рекламу на сайте

28-05-2013 16:38 Морис Ришар Скачать торрент  

f123123
Запрет на размещение рипов ненадлежащего качества
Правила раздела Фильмы. Как правильно оформить раздачу фильма
для начинающего релизера читать обязательно.
Вот правильно Однажды в Ирландии / The Guard оформленная раздача правим у себя.pb.wtf



28-05-2013 16:42 Морис Ришар Скачать торрент  

f123123 писал(а):

КиноПоиск | IMDb

Пункт идет после Премьера в мире:
Добавляем
Видео кодек:
Аудио кодек:

f123123 писал(а):

Аудио#1: AC3, 48000Hz 6ch, 448 Kbps [английский и французский]

указываем наличие второй аудио дорожки, а не одной строкой две.pb.wtf



29-05-2013 05:04 Морис Ришар Скачать торрент  

Тут одна дорожкаpb.wtf



05-08-2013 03:03 Морис Ришар Скачать торрент  

числа до 25 августа на раздаче быть не смогуpb.wtf



    Дорогой пользователь! Огромная просьба, поблагодарите релизера, оцените раздачу и оставьте свои комментарий, если Вы скачали Морис Ришар через торрент бесплатно! Внесите свою лепту в развитие PiratBit!
    Комментировать посты могут только пользователи прошедшие не сложную регистрацию
    Показать сообщения:    

    Морис Ришар через торрент
    Скачать бесплатно Морис Ришар
    Морис Ришар скачать торрент
    Морис Ришар смотреть онлайн
    Cкачать фильм Морис Ришар бесплатно
    Морис Ришар скачать торрент в хорошем качестве
    Морис Ришар смотреть онлайн бесплатно в хорошем качестве


    Вы не можете начинать темы
    Вы не можете отвечать на сообщения
    Вы не можете редактировать свои сообщения
    Вы не можете удалять свои сообщения
    Вы не можете голосовать в опросах
    Вы не можете прикреплять файлы к сообщениям
    Вы можете скачивать файлы