2 сезон

iTunes

MVO

1

2 сезон

iTunes

iTunes

1 сезон

RePack

30

Ultimate

ВАЖНО

ИГРА 18+

pack

RePack

MK11
pack

Легкие деньги

RePack

jed

RePack

fifa19

RePack

RDR2

RePack

NEED FOR SPEED™ PAYBACK

4 сезон

9 сезон

Бесстыжие 9 сезон

Все сериалы

все сериалы на PB.wtf

RePack

FAR CRY 5

Anonymous, доброй ночи, мы не успеваем собрать деньги на оплату серверов за декабрь и январь, помогите нам пожалуйста в это трудное время. В качестве благодарности мы отключим Вам всю рекламу на сайте (укажите свой ник в строку Ваше имя)!

×
  
Magnet ссылка

Универсальный солдат 4 в 3D / Universal Soldier: Day of Reckoning in 3D (Джон Хайамс) [2012 г., фантастика, боевик, триллерслова, BDRip 1080p, Дубляж, лицензия] Anaglyph (Дюбуа) pb.wtf

Универсальный солдат 4 в 3D через торрент pb.wtf

Размер: 6.63 GB | Добавлен: 7 лет 7 мес. назад | Торрент скачан:140 раз
Скачать  

29-05-2013 13:53 Универсальный солдат 4 в 3D Скачать торрент  

Универсальный солдат 4 в 3D / Universal Soldier: Day of Reckoning in 3D
Год выпуска: 2012
Страна: США
Жанр: фантастика, боевик, триллерслова,
Продолжительность: 01:53:39
Перевод: Дубляж, Лицензия

Режиссер: Джон Хайамс
Продюссер: Крэйг Баумгартен, Моше Дайамант, Аллен Шапиро
Сценарий: Джон Хайамс, Даг Магнусон, Джон Гринхалг

Бюджет: $11 500 000
Премьера в мире: 23 августа 2012

IMDB 5.10 (9 090)



В ролях: Жан-Клод Ван Дамм, Скотт Эдкинс, Андрей Орловский, Дольф Лундгрен, Мария Боннер, Тони Жарро, Крэйг Уолкер, Эндрю Сиккинг, Джеймс ДюМонт, Дэвид Дженсен,
Роли дублировали: Александр Рахленко, Илья Исаев, Михаил Георгиу, Ирина Киреева, Никита Прозоровский,

Описание: Настоящее время. Программа «Unisol» по-прежнему актуальна и снова введена в эксплуатацию. Давним и непримиримым врагам времён Вьетнамской войны Эндрю Скотту и Люку Деверо суждено встретиться в очередной раз, дабы продолжить своё извечное противостояние и нескончаемую борьбу. Однако, новые опасности и трудности заставляют двух солдат на время объединиться пред лицом общей неприятности, что весьма ненадолго. Ясно одно: кровавый исход и брутальный финал неизбежен...

Доп. информация: Формат 3D: Анаглиф (Дюбуа)



Качество: BDRip 1080p
Формат: MKV
Видео кодек: H.264
Аудио кодек: AC3
Видео: 1916 х 816 / 23,976 fps, (2,35:1) / 8002 Kbps, (0.213 bit/pixel)
Аудио#1: 48.0 kHz, AC3 Dolby Digital, 3/2 (L,C,R,l,r) + LFE ch, 384 kbps avg



скриншот   скриншот   скриншот   скриншот   скриншот   скриншот  
Общее
Уникальный идентификатор : 308841600740967092418542578855678624432 (0xE858BA8BAFD2C3ED52043AD54D24C2B0)
Полное имя : E:Universal.Soldier.Day.of.Reckoning.3D(Anaglyph_Dubois).mkv
Формат : Matroska
Размер файла : 6,63 Гбайт
Продолжительность : 1 ч. 53 м.
Общий поток : 8357 Кбит/сек
Программа кодирования : HandBrake 0.9.8
Библиотека кодирования : libmkv 0.6.5

Видео
Идентификатор : 1
Формат : AVC
Формат/Информация : Advanced Video Codec
Профиль формата : Baseline@L4.0
Параметр CABAC формата : Нет
Параметр ReFrames формата : 1 кадр
Идентификатор кодека : V_MPEG4/ISO/AVC
Продолжительность : 1 ч. 53 м.
Битрейт : 8002 Кбит/сек
Ширина : 1916 пикс.
Высота : 816 пикс.
Соотношение сторон : 2,35:1
Частота кадров : 23,976 кадр/сек
Цветовое пространство : YUV
Подвыборка цветности : 4:2:0
Битовая глубина : 8 бит
Тип развёртки : Прогрессивная
Бит/(Пиксели*Кадры) : 0.213
Размер потока : 6,20 Гбайт (93%)
Библиотека кодирования : x264 core 120
Настройки программы : cabac=0 / ref=1 / deblock=0:0:0 / analyse=0:0 / me=dia / subme=0 / psy=1 / psy_rd=1.00:0.00 / mixed_ref=0 / me_range=16 / chroma_me=1 / trellis=0 / 8x8dct=0 / cqm=0 / deadzone=21,11 / fast_pskip=1 / chroma_qp_offset=0 / threads=3 / sliced_threads=0 / nr=0 / decimate=1 / interlaced=0 / bluray_compat=0 / constrained_intra=0 / bframes=0 / weightp=0 / keyint=240 / keyint_min=24 / scenecut=0 / intra_refresh=0 / rc=abr / mbtree=0 / bitrate=8002 / ratetol=1.0 / qcomp=0.60 / qpmin=3 / qpmax=69 / qpstep=4 / ip_ratio=1.40 / aq=0
Язык : English
Основные цвета : BT.709-5, BT.1361, IEC 61966-2-4, SMPTE RP177
Характеристики трансфера : BT.709-5, BT.1361
Коэффициенты матрицы : BT.709-5, BT.1361, IEC 61966-2-4 709, SMPTE RP177

Аудио
Идентификатор : 2
Формат : AC-3
Формат/Информация : Audio Coding 3
Расширение режима : CM (complete main)
Идентификатор кодека : A_AC3
Продолжительность : 1 ч. 53 м.
Вид битрейта : Постоянный
Битрейт : 384 Кбит/сек
Канал(ы) : 6 канала(ов)
Расположение каналов : Front: L C R, Side: L R, LFE
Частота : 48,0 КГц
Битовая глубина : 16 бит
Метод сжатия : С потерями
Размер потока : 312 Мбайт (5%)
Язык : Russian


Универсальный солдат 4 скачать торрент


pb.wtf



Скачать Универсальный солдат 4 в 3D через торрент http://i46.fastpic.ru/big/2013/0529/a4/6e258e67877d7ab9718e6a89b60b89a4.gif Скачать фильм Универсальный солдат 4 в 3D через торрент бесплантно в хорошем качестве Описание: Настоящее время. Программа «Unisol» по-прежнему актуальна и снова введена в эксплуатацию. Давним и непримиримым врагам времён ... 7 10 9
Info! Золотая раздача, скачанное не засчитывается.
Торрент: Зарегистрирован [2013-05-29 13:53] · скачан: 140 раз
Статус: √ проверено
Размер: 6.63 GB
Как cкачать? Как скачать Универсальный солдат 4 в 3D через торрент | UTorrent

% Раздел Тема Автор DL S | L
3D Фильмы [ 13.64 GB ] Универсальный солдат 4 в 3Д / Universal Soldier: Day of Reckoning 3D [2012 BDrip 1080p] OverUnder / Вертикальная стереопара serega768 Скачать
1 | 0

28-11-2019 20:33  

Отключить всю рекламу на сайте

29-05-2013 14:53 Универсальный солдат 4 в 3D Скачать торрент  

данное какашко к просмотру не рекомендуетсяpb.wtf



29-05-2013 16:57 Универсальный солдат 4 в 3D Скачать торрент  

Судя по скринам, неувядающие уневерсалы постарели телом и мозгом жуть как...)))pb.wtf



    Дорогой пользователь! Огромная просьба, поблагодарите релизера, оцените раздачу и оставьте свои комментарий, если Вы скачали Универсальный солдат 4 в 3D через торрент бесплатно! Внесите свою лепту в развитие PiratBit!
    Комментировать посты могут только пользователи прошедшие не сложную регистрацию
    Показать сообщения:    

    Универсальный солдат 4 в 3D через торрент
    Скачать бесплатно Универсальный солдат 4 в 3D
    Универсальный солдат 4 в 3D скачать торрент
    Универсальный солдат 4 в 3D смотреть онлайн
    Cкачать фильм Универсальный солдат 4 в 3D бесплатно
    Универсальный солдат 4 в 3D скачать торрент в хорошем качестве
    Универсальный солдат 4 в 3D смотреть онлайн бесплатно в хорошем качестве


    Вы не можете начинать темы
    Вы не можете отвечать на сообщения
    Вы не можете редактировать свои сообщения
    Вы не можете удалять свои сообщения
    Вы не можете голосовать в опросах
    Вы не можете прикреплять файлы к сообщениям
    Вы можете скачивать файлы