2 сезон

iTunes

MVO

1

2 сезон

iTunes

iTunes

1 сезон

RePack

30

Ultimate

ВАЖНО

ИГРА 18+

pack

RePack

MK11
pack

Легкие деньги

RePack

jed

RePack

fifa19

RePack

RDR2

RePack

NEED FOR SPEED™ PAYBACK

4 сезон

9 сезон

Бесстыжие 9 сезон

Все сериалы

все сериалы на PB.wtf

RePack

FAR CRY 5

Anonymous, добрый вечер, мы не успеваем собрать деньги на оплату серверов за декабрь и январь, помогите нам пожалуйста в это трудное время. В качестве благодарности мы отключим Вам всю рекламу на сайте (укажите свой ник в строку Ваше имя)!

×
  
Magnet ссылка

Королевская битва в 3D / Batoru rowaiaru in 3D (Киндзи Фукасаку) [2000 г., ужасы, фантастика, боевик, триллер, драма, приключения, BDRip 1080p, Дубляж, лицензия] Анаглиф (Дюбуа) pb.wtf

Королевская битва в 3D через торрент pb.wtf

Качают: 1 [ 0 KB/s ]
Размер: 7.04 GB | Добавлен: 7 лет 7 мес. назад | Торрент скачан:34 раза
Скачать  

29-05-2013 19:24 Королевская битва в 3D Скачать торрент  

Королевская битва в 3D / Batoru rowaiaru in 3D
Год выпуска: 2000
Страна: Япония
Жанр: ужасы, фантастика, боевик, триллер, драма, приключения,
Продолжительность: 01:58:59
Перевод: Дубляж, Лицензия
Субтитры: Russian

Режиссер: Киндзи Фукасаку
Продюссер: Кэнта Фукасаку, Киндзи Фукасаку, Кимио Катаока
Сценарий: Кэнта Фукасаку, Коусюн Таками

Бюджет: 16 декабря 2000
Премьера в мире: 16 декабря 2000

IMDB 7.80 (94 249)



В ролях: Такеши Китано, Тацуя Фудзивара, Аки Маэда, Юко Миямура, Таро Ямамото, Ко Шибасаки, Тиаки Курияма, Соускэ Такаока, Такаши Цукамото, Юкихиро Котани,
Роли дублировали: Александр Груздев, Денис Беспалый, Юрий Брежнев, Андрей Бархударов, Жанна Никонова,

Описание: Такого еще не было, но будет! Очень скоро! Родители лишатся работы, а дети выйдя из под контроля, учинят террор и массовый бойкот взрослым. Ответная мера: «Королевская битва» — санкционированная правительством жестокая игра, в которой неуправляемых школьников заставят участвовать под дулами армейских автоматов.На необитаемом острове 42 подростка будут 3 дня безжалостно уничтожать друг друга, чтобы победить. Только одному игроку разрешено вернуться на большую землю живым. Невозмутимый распорядитель зловещей игры — школьный учитель Китано. Свое имя дал герою исполнитель этой роли всемирно известный культовый актер и режиссер Такеши Китано. Кровь льется рекой, но учитель Китано гарантирует не только соблюдение условий игры, но и ее условность.Юные герои гибнут, точь-в-точь как в компьютерной «стрелялке». Вот только мораль фильма не виртуальная. Из безумного электронного будущего она обращена в сегодняшний день.

Доп. информация: Формат 3D: Анаглиф (Дюбуа)



Качество: BDRip 1080p
Формат: MKV
Видео кодек: H.264
Аудио кодек: AC3
Видео: 1920 х 1072 / 23,976 fps, (16:9) / 8001 Kbps, (0.162 bit/pixel)
Аудио#1: Русский / AC3 / 48 KHz / 5.1 ch / 384 Kbps



скриншот   скриншот   скриншот   скриншот   скриншот  
Общее
Уникальный идентификатор : 117134347384550900198311613397417005802 (0x581F4134F6C7F2E17777C546AC2312EA)
Полное имя : D:DVDKorolevskaya.Bitva.3D.(Anaglyph_Dubois).mkv
Формат : Matroska
Версия формата : Version 2
Размер файла : 7,04 Гбайт
Продолжительность : 1 ч. 58 м.
Общий поток : 8467 Кбит/сек
Программа кодирования : HandBrake 0.9.8
Библиотека кодирования : libmkv 0.6.5

Видео
Идентификатор : 1
Формат : AVC
Формат/Информация : Advanced Video Codec
Профиль формата : Baseline@L4.0
Параметр CABAC формата : Нет
Параметр ReFrames формата : 4 кадра
Идентификатор кодека : V_MPEG4/ISO/AVC
Продолжительность : 1 ч. 58 м.
Битрейт : 8001 Кбит/сек
Ширина : 1920 пикселей
Высота : 1072 пикселя
Соотношение сторон : 16:9
Режим частоты кадров : Постоянный
Частота кадров : 23,976 кадра/сек
Цветовое пространство : YUV
Субдискретизация насыщенности : 4:2:0
Битовая глубина : 8 бит
Тип развёртки : Прогрессивная
Бит/(Пиксели*Кадры) : 0.162
Размер потока : 6,58 Гбайт (93%)
Библиотека кодирования : x264 core 120
Настройки программы : cabac=0 / ref=4 / deblock=0:0:0 / analyse=0:0 / me=dia / subme=0 / psy=1 / psy_rd=1.00:0.00 / mixed_ref=0 / me_range=16 / chroma_me=1 / trellis=0 / 8x8dct=0 / cqm=0 / deadzone=21,11 / fast_pskip=1 / chroma_qp_offset=0 / threads=3 / sliced_threads=0 / nr=0 / decimate=1 / interlaced=0 / bluray_compat=0 / constrained_intra=0 / bframes=0 / weightp=0 / keyint=240 / keyint_min=24 / scenecut=0 / intra_refresh=0 / rc=abr / mbtree=0 / bitrate=8001 / ratetol=1.0 / qcomp=0.60 / qpmin=3 / qpmax=69 / qpstep=4 / ip_ratio=1.40 / aq=0
Язык : English
Default : Да
Forced : Нет
Основные цвета : BT.709
Характеристики трансфера : BT.709
Коэффициенты матрицы : BT.709

Аудио
Идентификатор : 2
Формат : AC-3
Формат/Информация : Audio Coding 3
Расширение режима : CM (complete main)
Параметр Endianness формата : Big
Идентификатор кодека : A_AC3
Продолжительность : 1 ч. 58 м.
Вид битрейта : Постоянный
Битрейт : 384 Кбит/сек
Каналы : 6 каналов
Расположение каналов : Front: L C R, Side: L R, LFE
Частота : 48,0 КГц
Битовая глубина : 16 бит
Метод сжатия : С потерями
Размер потока : 327 Мбайт (5%)
Язык : Russian
Default : Да
Forced : Нет

Текст
Идентификатор : 3
Формат : VobSub
Идентификатор кодека : S_VOBSUB
Идентификатор кодека/Информация : The same subtitle format used on DVDs
Язык : Russian
Default : Нет
Forced : Нет

Меню
00:00:00.000 : Chapter 1
00:02:40.160 : Chapter 2
00:10:10.610 : Chapter 3
00:16:21.021 : Chapter 4
00:26:11.611 : Chapter 5
00:33:54.073 : Chapter 6
00:38:27.346 : Chapter 7
00:46:01.800 : Chapter 8
00:55:23.361 : Chapter 9
01:08:58.175 : Chapter 10
01:16:33.630 : Chapter 11
01:25:28.164 : Chapter 12
01:33:48.664 : Chapter 13
01:38:47.963 : Chapter 14
01:42:58.213 : Chapter 15
01:48:17.532 : Chapter 16
01:50:06.641 : Chapter 17


Королевская битва скачать торрент


pb.wtf



Скачать Королевская битва в 3D через торрент http://i47.fastpic.ru/big/2013/0529/a3/557b6d334b9bf81ccec8d2d605287ba3.gif Скачать фильм Королевская битва в 3D через торрент бесплантно в хорошем качестве Описание: Такого еще не было, но будет! Очень скоро! Родители лишатся работы, а дети выйдя из под контроля, учинят террор и массовый бойкот ... 10 10 2
Info! Золотая раздача, скачанное не засчитывается.
Торрент: Зарегистрирован [2013-05-29 19:24] · скачан: 34 раз
Статус: √ проверено
Размер: 7.04 GB
Как cкачать? Как скачать Королевская битва в 3D через торрент | UTorrent



Последний раз редактировалось: slaventi-69 (2013-05-29 19:34), всего редактировалось 1 раз

28-11-2019 20:33  

Отключить всю рекламу на сайте

29-05-2013 19:31 Королевская битва в 3D Скачать торрент  

slaventi-69 писал(а):

Королевская битва в 3D / Batoru rowaiaru in 3D (Киндзи Фукасаку) [2000 г., ужасы, фантастика, боевик, триллер, драма, приключенияслова, BDRip 1080p, Дубляж, Лицензия] Анаглиф (Дюбуа)

Поправьте.pb.wtf



29-05-2013 19:35 Королевская битва в 3D Скачать торрент  

Все исправил, поиск сам добавляет непонятно почему.pb.wtf



29-05-2013 20:53 Королевская битва в 3D Скачать торрент  

slaventi-69 писал(а):

Все исправил, поиск сам добавляет непонятно почему.

Да у все такое, выясняем пока вручную править надо.pb.wtf



    Дорогой пользователь! Огромная просьба, поблагодарите релизера, оцените раздачу и оставьте свои комментарий, если Вы скачали Королевская битва в 3D через торрент бесплатно! Внесите свою лепту в развитие PiratBit!
    Комментировать посты могут только пользователи прошедшие не сложную регистрацию
    Показать сообщения:    

    Королевская битва в 3D через торрент
    Скачать бесплатно Королевская битва в 3D
    Королевская битва в 3D скачать торрент
    Королевская битва в 3D смотреть онлайн
    Cкачать фильм Королевская битва в 3D бесплатно
    Королевская битва в 3D скачать торрент в хорошем качестве
    Королевская битва в 3D смотреть онлайн бесплатно в хорошем качестве


    Вы не можете начинать темы
    Вы не можете отвечать на сообщения
    Вы не можете редактировать свои сообщения
    Вы не можете удалять свои сообщения
    Вы не можете голосовать в опросах
    Вы не можете прикреплять файлы к сообщениям
    Вы можете скачивать файлы