Мега распродажа FORZA HORIZON 4 ULTIMATE+ВСЕ DLC+ОНЛАЙН всего за 499р. 349 руб. (супер цена). Внимание количество ограничено!!!

Лицензия

30

iTunes

мы

iTunes

1

1 сезон

Чернобыль

1 сезон

Ральф против интернета

MVO

Покемон. Детектив Пикачу

8 сезон

Игра престолов

iTunes

1+1

ИГРА 18+

pack

ВАЖНО

!!Акция!!

Alien_RageХит недели

RePack

Resident Evil 21
pack

RePack

Metro:Exodus

!!Акция!!

Alien_Rage

RePack

fifa19

RePack

Assassins Creed: Odyssey

RePack

NEED FOR SPEED™ PAYBACK

3 сезон

9 сезон

Бесстыжие 9 сезон

Все сериалы

все сериалы на PB.wtf

RePack

FAR CRY 5
Ребята, катастрофически не хватает 2730р. для оплаты серверов за МАЙ (всвязи с блокировками трафик упал в 3 раза), 1-2р., выручайте.
  

Добейся успеха / Bring It On (Пейтон Рид) [2000 г., комедия, спорт, DVDRip, Дубляж] pb.wtf

Добейся успеха через торрент pb.wtf

Размер: 1.37 GB | Добавлен: 6 лет назад | Торрент скачан:37 раз
Скачать  

30-05-2013 10:33 Добейся успеха Скачать торрент  

Добейся успеха / Bring It On
Год выпуска: 2000
Страна: США
Жанр: комедия, спорт,
Продолжительность: 01:38:46
Перевод: Профессиональный (полное дублирование)

__________________________________
Режиссер: Пейтон Рид
В ролях: Кирстен Данст, Элиза Душку, Джесс Бредфорд, Габриэль Юнион, Клэр Крамер, Николь Билдербек, Рини Белл, Натан Уэст,
Бюджет: $28 000 000
Премьера в мире: 22 августа 2000



Описание: Эти девчонки из группы поддержки университетской футбольной команды знают, как привлечь к себе внимание. При взгляде на них у ребят резко повышается кровяное давление. Они просто обворожительны, сногсшибательны, их энергичные танцы приводят в возбуждение толпы болельщиков.
Они пользуются бешеным успехом, ведь их упругие молодые тела вырабатывают такое количество сексуальной энергии, что зрители, позабыв про футбол, приходят на стадион только ради них.
Но, поскольку, такая группа поддержки есть почти у каждого университета, между девчонками из разных команд разгорается нешуточная борьба за звание лучшей в своем роде.
В ход идут самые неожиданные приемы и ухищрения, и порой дело близится к рукопашной. Но, чтобы действительно считаться лучшей командой, надо победить в национальном чемпионате, а этого смогут добиться только самые красивые, самые талантливые, самые задорные и сексуальные.


__________________________________
Качество: DVDRip
Формат: AVI
Видео кодек: DivX
Аудио кодек: AC3
Видео: 640x336 (1.90:1), 25 fps, DivX Codec 5.2.1 build 1328 ~1525 kbps avg, 0.28 bit/pixel
Аудио#1: 48 kHz, AC3 Dolby Digital, 3/2 (L,C,R,l,r) + LFE ch, ~448.00 kbps avg
скриншот   скриншот   скриншот   скриншот   скриншот  

Video
ID : 0
Format : MPEG-4 Visual
Format settings, BVOP : 1
Format settings, QPel : No
Format settings, GMC : No warppoints
Format settings, Matrix : Default (MPEG)
Muxing mode : Packed bitstream
Codec ID : DX50
Codec ID/Hint : DivX 5
Duration : 1h 38mn
Bit rate : 1 315 Kbps
Width : 640 pixels
Height : 336 pixels
Display aspect ratio : 1.905
Frame rate : 25.000 fps
Color space : YUV
Chroma subsampling : 4:2:0
Bit depth : 8 bits
Scan type : Progressive
Compression mode : Lossy
Bits/(Pixel*Frame) : 0.245
Stream size : 708 MiB (51%)
Writing library : DivX 5.2.1 (WaffleDay) (UTC 2004-09-08)

Audio
ID : 1
Format : AC-3
Format/Info : Audio Coding 3
Mode extension : CM (complete main)
Format settings, Endianness : Big
Codec ID : 2000
Duration : 1h 38mn
Source duration : 1h 15mn
Bit rate mode : Constant
Bit rate : 448 Kbps
Channel(s) : 6 channels
Channel positions : Front: L C R, Side: L R, LFE
Sampling rate : 48.0 KHz
Bit depth : 16 bits
Compression mode : Lossy
Stream size : 241 MiB (17%)
Alignment : Split accross interleaves
Interleave, duration : 40 ms (1.00 video frame)
Interleave, preload duration : 500 ms

ПРИЯТНОГО ПРОСМОТРА!!!
™Оформление by fiskerpb.wtf



Скачать Добейся успеха через торрент http://pic.kartinco.top/images/2/9kyxaaef7w.png Скачать фильм Добейся успеха через торрент бесплантно в хорошем качестве Описание: Эти девчонки из группы поддержки университетской футбольной команды знают, как привлечь к себе внимание. При взгляде на них у ... 7.8 10 4
Info! Золотая раздача, скачанное не засчитывается.
Торрент: Зарегистрирован [2013-05-30 10:33] · скачан: 37 раз
Статус: # сомнительно
Размер: 1.37 GB
Как cкачать? Как скачать Добейся успеха через торрент | qTorrent

% Раздел Тема Автор DL S | L
Фильмы [HD 720p, 1080p] (Хороший звук DUB, MVO) [ 7.6 GB ] Добейся успеха / Bring It On [2000 BDRip 720p] [DUB MVO DVO] Quadropedia Скачать
2 | 1
Сборники на DVD и Сиквелы [DVDrip, WEB-DLRip, HDrip, BDRip] [ 4.29 GB ] Добейся успеха 12345 / Bring it on 12345 [2000 2004 2006 2007 2009 г DVD/HDRip-AVC] XLASER Скачать
3 | 0
Фильмы 2009 [ 1.37 GB ] Добейся успеха. Борись до конца! / Bring It On: Fight to the Finish [2009 HDTV] Светлана999999 Скачать
1 | 0
Фильмы 2009 [ 1.37 GB ] Добейся успеха: Борись до конца! / Bring It On: Fight to the Finish [2009 DVDRip] DEVI Скачать
1 | 0


Последний раз редактировалось: fisker from DREAM Paragon (2013-05-30 18:57), всего редактировалось 2 раз(а)


>> Регистрируемся здесь <<






Отзывы и комментарии о схеме читаем и пишем здесь: ---> Отзывы и комментарии о схеме

Новые благодарочки в телеграм довольных пользователей:
скриншот   скриншот   скриншот   скриншот   скриншот

30-05-2013 10:42 Добейся успеха Скачать торрент  

fisker from DREAM Paragon
Постер замените без названия стороннего ресурса.pb.wtf



30-05-2013 11:26 Добейся успеха Скачать торрент  

fisker from DREAM Paragon писал(а):

• Продолжительность: 01:38:46

fisker from DREAM Paragon писал(а):

Source duration : 1h 15mn

?

Рип не для всех бытовых плеерах, Аспект меня беспокоит.pb.wtf



    Дорогой пользователь! Огромная просьба, поблагодарите релизера, оцените раздачу и оставьте свои комментарий, если Вы скачали Добейся успеха через торрент бесплатно! Внесите свою лепту в развитие PiratBit!
    Комментировать посты могут только пользователи прошедшие не сложную регистрацию
    Показать сообщения:    

    Добейся успеха через торрент
    Скачать бесплатно Добейся успеха
    Добейся успеха скачать торрент
    Добейся успеха смотреть онлайн
    Cкачать фильм Добейся успеха бесплатно
    Добейся успеха скачать торрент в хорошем качестве
    Добейся успеха смотреть онлайн бесплатно в хорошем качестве


    Вы не можете начинать темы
    Вы не можете отвечать на сообщения
    Вы не можете редактировать свои сообщения
    Вы не можете удалять свои сообщения
    Вы не можете голосовать в опросах
    Вы не можете прикреплять файлы к сообщениям
    Вы можете скачивать файлы