новый адрес
Ссылка на приватное зеркало всего за 1$. Внимание количество ограничено!!!

iTunes

1+1

iTunes

мы

WEB-DL

1

iTunes

Чернобыль

iTunes

Ральф против интернета

Лицензия

ПШазам

Лицензия

Оно 2

Лицензия

30
pack

Вам бонус

ВАЖНО

!!Акция!!

Alien_RageХит недели

RePack

Resident Evil 21

ИГРА 18+

pack

RePack

jed

!!Акция!!

Alien_Rage

RePack

fifa19

RePack

Assassins Creed: Odyssey

RePack

NEED FOR SPEED™ PAYBACK

3 сезон

9 сезон

Бесстыжие 9 сезон

Все сериалы

все сериалы на PB.wtf

RePack

FAR CRY 5
Ребята, катастрофически не хватает 1900р. для оплаты серверов за Октябрь (всвязи с блокировками трафик упал в 3 раза), 1-2р., выручайте.
  

В тумане (Сергей Лозница) [2012 г., драма, военный, история, DVDRip] (лицензия) pb.wtf

В тумане через торрент pb.wtf

Размер: 1.46 GB | Добавлен: 6 лет 6 мес. назад | Торрент скачан:1647 раз
Скачать  

31-05-2013 13:42 В тумане Скачать торрент  

В тумане
Год выпуска: 2012
Страна: Россия
Жанр: драма, военный, история,
Продолжительность: 02:02:55

Режиссер: Сергей Лозница
Продюссер: Хайно Декерт, Мария Бейкер-Чустова, Йост де Фриз
Сценарий: Василь Быков, Сергей Лозница

Бюджет: 25 мая 2012
Премьера в мире: 25 мая 2012

IMDB 6.80 (446)


В ролях: Владимир Свирский, Владислав Абашин, Сергей Колесов, Никита Перемотов, Юлия Пересильд, Кирилл Петров, Дмитрий Колосов, Степан Богданов, Дмитрий Быковский, Влад Иванов,

Описание: Действие исторической драмы происходит в 1942 году в оккупированной немцами Белоруссии. Путевого обходчика Сущеню ложно обвиняют в сотрудничестве с оккупантами. Два партизана приезжают на хутор к Сущене, чтобы совершить расправу. В надежде доказать свою невиновность Сущеня пытается сделать моральный выбор в аморальных обстоятельствах.

Качество: DVDRip
Формат: AVI
Видео кодек: XviD
Аудио кодек: AC3
Видео: 720x304 (2.37:1), 25 fps, XviD build 65 ~1306 kbps avg, 0.24 bit/pixe
Аудио#1: 48 kHz, AC3 Dolby Digital, 3/2 (L,C,R,l,r) + LFE ch, ~384 kbps

Общее
Полное имя : D:ТорентыВ тумане (2012) DVDRip.avi
Формат : AVI
Формат/Информация : Audio Video Interleave
Размер файла : 1,46 Гбайт
Продолжительность : 2 ч. 2 м.
Общий поток : 1700 Кбит/сек
Название фильма : В тумане (2012) DVDRip - X-Torrents
Режиссёр : X-Torrents
Программа кодирования : VirtualDubMod 1.5.10.3 | www.virtualdub-fr.org || (build 2550/release)

Видео
Идентификатор : 0
Формат : MPEG-4 Visual
Профиль формата : Advanced Simple@L5
Параметр BVOP формата : 2
Параметр QPel формата : Нет
Параметр GMC формата : Без точки перехода
Параметр матрицы формата : Default (H.263)
Идентификатор кодека : XVID
Идентификатор кодека/Подсказка : XviD
Продолжительность : 2 ч. 2 м.
Битрейт : 1307 Кбит/сек
Ширина : 720 пикселей
Высота : 304 пикселя
Соотношение сторон : 2,35:1
Частота кадров : 25,000 кадров/сек
Цветовое пространство : YUV
Субдискретизация насыщенности : 4:2:0
Битовая глубина : 8 бит
Тип развёртки : Прогрессивная
Метод сжатия : С потерями
Бит/(Пиксели*Кадры) : 0.239
Размер потока : 1,12 Гбайт (77%)
Библиотека кодирования : XviD 65

Аудио
Идентификатор : 1
Формат : AC-3
Формат/Информация : Audio Coding 3
Расширение режима : CM (complete main)
Параметр Endianness формата : Big
Идентификатор кодека : 2000
Продолжительность : 2 ч. 2 м.
Вид битрейта : Постоянный
Битрейт : 384 Кбит/сек
Каналы : 6 каналов
Расположение каналов : Front: L C R, Side: L R, LFE
Частота : 48,0 КГц
Битовая глубина : 16 бит
Метод сжатия : С потерями
Размер потока : 338 Мбайт (23%)
Выравнивание : Разделение по промежуткам
Продолжительность промежутка : 40 мс. (1,00 видеокадр)
Время предзагрузки промежутка : 500 мс.


В тумане скачать торрент


pb.wtf



Скачать В тумане через торрент http://i46.fastpic.ru/big/2013/0531/c8/3b077fbb10b086c9b6a524e5178fe5c8.png Скачать фильм В тумане через торрент бесплантно в хорошем качестве Описание: Действие исторической драмы происходит в 1942 году в оккупированной немцами Белоруссии. Путевого обходчика Сущеню ложно обвиняют ... 9.4 10 49
Info! Золотая раздача, скачанное не засчитывается.
Торрент: Зарегистрирован [2013-05-31 13:42] · скачан: 1 647 раз
Статус: √ проверено
Размер: 1.46 GB
Как cкачать? Как скачать В тумане через торрент | qTorrent

% Раздел Тема Автор DL S | L
Фильмы 2017 [DVDrip, WEB-DLRip, HDrip] (DUB, MVO) [ 1.4 GB ] Девушка в тумане / La ragazza nella nebbia [2017 BDRip-AVC] bober100 Скачать
5 | 0
Детективы, Боевики, Триллеры [ 268 MB ] Донато Карризи - Девушка в тумане [Павел Конышев 2019 56 kbps MP3] bober100 Скачать
1 | 0
Фильмы (Blu-ray, BD-Remux, HDDVD) [ 25.78 GB ] Девушка в тумане / La ragazza nella nebbia [2017 BDRemux 1080p] sheker187 Скачать
1 | 0
Кино СССР [ 1.82 GB ] Берега в тумане [1985 киноповесть SATRip-AVC] Скорпион1976 Скачать
1 | 0
S.T.A.L.K.E.R. [ 3.12 GB ] S.T.A.L.K.E.R.: Shadow of Chernobyl - Первые Дни Зоны: Создание в тумане [Repack RUS] от SeregA-Lus SeregA_Lus Скачать
8 | 0
Фильмы [HD 720p, 1080p] (Хороший звук DUB, MVO) [ 8.5 GB ] Девушка в тумане / La ragazza nella nebbia [2017 BDRip 720p] bober100 Скачать
3 | 0
Арт-хаус и авторское кино [ 2.53 GB ] В тумане [2012 военный история BDRip-AVC] ExKinoRay Enigma2010 Скачать
1 | 0

28-11-2019 20:33  

Отключить всю рекламу на сайте

02-07-2013 20:21 В тумане Скачать торрент  

Оу оу оу. А где комменты то? Качать или нет?pb.wtf



09-08-2013 22:17 В тумане Скачать торрент  

Странно, что комментов нету.
Я не понимаю, когда ТАКИЕ фильмы проходят тихо и становятся только достоянием кинокритиков!
Да, это фильм без урапатриотизма, без массовых выделений крови и желчи на экране. Ну и что? Это Василь БЫКОВ! Это очевидец той войны, один из миллионов маленьких людей на той большой войне.
Я думаю, уже только поэтому необходимо посмотреть этот фильм.
И огромное спасибо режиссеру за ОЧЕНЬ бережное отношение к повести!pb.wtf



15-08-2013 15:19 В тумане Скачать торрент  

не тратьте времяpb.wtf



    Дорогой пользователь! Огромная просьба, поблагодарите релизера, оцените раздачу и оставьте свои комментарий, если Вы скачали В тумане через торрент бесплатно! Внесите свою лепту в развитие PiratBit!
    Комментировать посты могут только пользователи прошедшие не сложную регистрацию
    Показать сообщения:    

    В тумане через торрент
    Скачать бесплатно В тумане
    В тумане скачать торрент
    В тумане смотреть онлайн
    Cкачать фильм В тумане бесплатно
    В тумане скачать торрент в хорошем качестве
    В тумане смотреть онлайн бесплатно в хорошем качестве


    Вы не можете начинать темы
    Вы не можете отвечать на сообщения
    Вы не можете редактировать свои сообщения
    Вы не можете удалять свои сообщения
    Вы не можете голосовать в опросах
    Вы не можете прикреплять файлы к сообщениям
    Вы можете скачивать файлы