Ссылка на приватное зеркало нашего сайта всего за 1$. Внимание количество ограничено!!!

2 сезон

iTunes

1 сезон

1

iTunes

iTunes

iTunes

1 сезон

RePack

30

ИГРА 18+

pack

ВАЖНО

!!Акция!!

Alien_RageХит недели

RePack

MK11
pack

Забери бонус

RePack

jed

!!Акция!!

Alien_Rage

RePack

fifa19

RePack

Assassins Creed: Odyssey

RePack

NEED FOR SPEED™ PAYBACK

4 сезон

9 сезон

Бесстыжие 9 сезон

Все сериалы

все сериалы на PB.wtf

RePack

FAR CRY 5
  

Хешер / Hesher (Спенсер Сассер) [2010 г., драма, HDRip, Профессиональный двухголосый] pb.wtf

Хешер через торрент pb.wtf

Размер: 2.17 GB | Добавлен: 7 лет 4 мес. назад | Торрент скачан:95 раз
Скачать  

31-05-2013 14:45 Хешер Скачать торрент  

Хешер / Hesher
Год выпуска: 2010
Страна: США
Жанр: драма,
Продолжительность: 01:45:32
Перевод: Профессиональный двухголосый

Режиссер: Спенсер Сассер
Продюссер: Люси Купер, Джонни Лин, Натали Портман
Сценарий: Спенсер Сассер, Дэвид Мишо, Брайан Чарльз Фрэнк

Бюджет: $7 000 000
Премьера в мире: 22 января 2010



В ролях: Джозеф Гордон-Левитт, Девин Брошу, Рэйн Уилсон, Пайпер Лори, Натали Портман, Брендан Йен Хилл, Джон Кэрролл Линч, Моника Стэггс, Мэри Элизабет Баррет, Одри Василевски,

Описание: Хешер — одиночка. Он ненавидит мир и всех, кто в нем живет. Он ходит с давно немытыми волосами и самодельными татуировками, которые украшают его тело. Он плохо питается и курит много сигарет. Он любит огонь и часто поджигает им различные предметы. Он мирно жил в своем фургоне до того момента, когда встретил Ти Джея...

Качество: HDRip
Формат: AVI
Видео кодек: XVID
Аудио кодек: AC3
Видео: 720x400, (16:9), 24,000 кадра/сек, 2031 Кбит/сек, 0.294 бит/пикс
Аудио#1: 48,0 КГц, АС3, 6 каналов, 448 Кбит/сек (DVO)
Аудио#2: 48,0 КГц, АС3, 6 каналов, 448 Кбит/сек (Оригинал)
скриншот  скриншот  скриншот  скриншот  скриншот  скриншот  
Общее
Полное имя : D:загрузкиХэшер 2010.avi
Формат : AVI
Формат/Информация : Audio Video Interleave
Профиль формата : OpenDML
Размер файла : 2,17 Гбайт
Продолжительность : 1 ч. 45 м.
Общий поток : 2945 Кбит/сек
Название фильма : Хэшер
Режиссёр : derdevil13
Программа кодирования : VirtualDubMod 1.5.10.2 (build 2542/release)
Библиотека кодирования : VirtualDubMod build 2542/release

Видео
Идентификатор : 0
Формат : MPEG-4 Visual
Профиль формата : Advanced Simple@L5
Параметр BVOP формата : 1
Параметр QPel формата : Нет
Параметр GMC формата : Без точки перехода
Параметр матрицы формата : Выборочная
Идентификатор кодека : XVID
Идентификатор кодека/Подсказка : XviD
Продолжительность : 1 ч. 45 м.
Битрейт : 2031 Кбит/сек
Ширина : 720 пикселей
Высота : 400 пикселей
Соотношение сторон : 16:9
Частота кадров : 24,000 кадра/сек
Цветовое пространство : YUV
Субдискретизация насыщенности : 4:2:0
Битовая глубина : 8 бит
Тип развёртки : Прогрессивная
Метод сжатия : С потерями
Бит/(Пиксели*Кадры) : 0.294
Размер потока : 1,50 Гбайт (69%)
Библиотека кодирования : XviD 1.2.1 (UTC 2008-12-04)

Аудио #1
Идентификатор : 1
Формат : AC-3
Формат/Информация : Audio Coding 3
Расширение режима : CM (complete main)
Параметр Endianness формата : Big
Идентификатор кодека : 2000
Продолжительность : 1 ч. 45 м.
Вид битрейта : Постоянный
Битрейт : 448 Кбит/сек
Каналы : 6 каналов
Расположение каналов : Front: L C R, Side: L R, LFE
Частота : 48,0 КГц
Битовая глубина : 16 бит
Метод сжатия : С потерями
Размер потока : 338 Мбайт (15%)
Выравнивание : Разделение по промежуткам
Продолжительность промежутка : 42 мс. (1,00 видеокадр)
Время предзагрузки промежутка : 500 мс.

Аудио #2
Идентификатор : 2
Формат : AC-3
Формат/Информация : Audio Coding 3
Расширение режима : CM (complete main)
Параметр Endianness формата : Big
Идентификатор кодека : 2000
Продолжительность : 1 ч. 45 м.
Вид битрейта : Постоянный
Битрейт : 448 Кбит/сек
Каналы : 6 каналов
Расположение каналов : Front: L C R, Side: L R, LFE
Частота : 48,0 КГц
Битовая глубина : 16 бит
Метод сжатия : С потерями
Размер потока : 338 Мбайт (15%)
Выравнивание : Разделение по промежуткам
Продолжительность промежутка : 42 мс. (1,00 видеокадр)
Время предзагрузки промежутка : 500 мс.


Хешер скачать торрент


pb.wtf



Скачать Хешер через торрент http://pic.kartinco.top/images/2/w7cdqgqace.jpg Скачать фильм Хешер через торрент бесплантно в хорошем качестве Описание: Хешер — одиночка. Он ненавидит мир и всех, кто в нем живет. Он ходит с давно немытыми волосами и самодельными татуировками, ... 9.5 10 2
Info! Золотая раздача, скачанное не засчитывается.
Торрент: Зарегистрирован [2013-05-31 14:45] · скачан: 95 раз
Статус: √ проверено
Размер: 2.17 GB
Как cкачать? Как скачать Хешер через торрент | qTorrent

% Раздел Тема Автор DL S | L
Фильмы [HD 720p, 1080p] (Хороший звук DUB, MVO) [ 10.82 GB ] Хешер / Hesher [2010 BDRip 1080p by msltel] MVO DVO AVO msltel Скачать
1 | 0
Фильмы [HD 720p, 1080p] (Хороший звук DUB, MVO) [ 3.5 GB ] Хешер / Hesher [2010 BDRip 720p by msltel] MVO DVO AVO msltel Скачать
2 | 0
Фильмы 2010 [ 1.45 GB ] Хешер / Hesher [2010 BDRip] DVO Ворон Скачать
1 | 0


Последний раз редактировалось: Безенчук (2013-05-31 15:28), всего редактировалось 2 раз(а)

28-11-2019 20:33  

Отключить всю рекламу на сайте

31-05-2013 14:50 Хешер Скачать торрент  

Безенчук
Продолжительность поправьте

Безенчук писал(а):

Жанр: драмаслова,

Безенчук писал(а):

Видео кодек: DivX

В MI XVID правим.
В сэмпле только одна дорожка, сделайте сэмпл с раздаваемого Вами файла
Как изготовить минутный видео сэмпл pb.wtf





Последний раз редактировалось: Ворон (2013-05-31 14:55), всего редактировалось 2 раз(а)

31-05-2013 14:53 Хешер Скачать торрент  

Vetаl
прошу прощения,не заметил,все исправил pb.wtf



31-05-2013 14:55 Хешер Скачать торрент  

Безенчук
Сэмпл с 2 дорогами плиз.Лучше использовать VirtualDubMod pb.wtf



31-05-2013 14:58 Хешер Скачать торрент  

Vetаl
он с этого файла,я бойлсофтом обрезаю,а он,паразит, одну дорогу только выбирает))pb.wtf



31-05-2013 15:05 Хешер Скачать торрент  

Безенчук
VirtualDubModом он отлично все делает, без обрезок, проверил но сэмпл поменяйте.pb.wtf



    Дорогой пользователь! Огромная просьба, поблагодарите релизера, оцените раздачу и оставьте свои комментарий, если Вы скачали Хешер через торрент бесплатно! Внесите свою лепту в развитие PiratBit!
    Комментировать посты могут только пользователи прошедшие не сложную регистрацию
    Показать сообщения:    

    Хешер через торрент
    Скачать бесплатно Хешер
    Хешер скачать торрент
    Хешер смотреть онлайн
    Cкачать фильм Хешер бесплатно
    Хешер скачать торрент в хорошем качестве
    Хешер смотреть онлайн бесплатно в хорошем качестве


    Вы не можете начинать темы
    Вы не можете отвечать на сообщения
    Вы не можете редактировать свои сообщения
    Вы не можете удалять свои сообщения
    Вы не можете голосовать в опросах
    Вы не можете прикреплять файлы к сообщениям
    Вы можете скачивать файлы